&title=Re: 我在机庁暗恋的女孩和剛舞萌w6的兄弟談恋愛了
&artist=凡絵
&first=0
&des=凡絵
&lv_5=14
&des_5=凡絵
&inote_5=
(172){4},{8},,,,,,,,,,,1>1>1b[1:4]*>1[1:2],
,,,E7,
B5,E4,E6,B4,E3,D7,
A5,D4,D6,A4,D3,E5h[4:1],,,,E3,
B4,E6,E4,B5,E7,D4h[4:1],
D6h[8:1],D5fh[2:1],{16},,,,,,,,,,,,,7/2-5[8:1],
,,,2/6-1[8:1],,,,6/1-4[8:1],,,,1x/5-8[8:1],,,,5/8-3[8:1],
,,,8x/4-7[8:1],,,,3/4-1[8:1],,,,5/4-8[8:1],,,,4/8-6[8:1],
,,,8x/5-1[8:1],,,,5/2-4-6-8[8:3],,,,2/1x-5[8:1],,,,1,
,,,8x-4[8:1]/3-1[8:1],,,,3/8<2[4:1],,,,1x,{48},1,,,,1,
,,,{16}1,,,8,7,{8}6-2[8:1],,6/2,{4}4-1[8:1],
{16}4/7,6,{8}5-1[8:1],,5/1,{4}8<6[8:1],{16}8/2,3,{8}4,
D7/E7/B7/E8/D8/A7h[16:1]/5bp1b[8:1],,,D1/E1/B1/E2/D2/A1h[16:1]/7bp3b[8:1],,,{4}D3/E3/B3/E4/D4/A3h[16:1]/1bw5b[8:1],
{8},,,E6h[8:3],E5h[2:3],E4h[4:1],,,{1}8>3>6[1:1],
{6},,,A1h[2:3],D2h[3:4],A2h[6:7],
{1}8<3<8[1:1],
{8},,,,A7h[8:11],D7h[8:11],A6h[8:11],B6h[8:11],
{1}B7h[8:11]/5>8>5qq5[4:7],
{2},8<5[4:1],
{16},,,,,,,3xpp4[4:1]/2x<1-4[4:1],,,,,,,,,,,,,,,,3h[8:1]/5h[8:1],
{48},,,,,6h[8:1]/2h[8:1],,,,,,,,7h[8:1]/1h[8:1],,,,,,,,{16}8bpp8<7-5<6-8[1:1],
,2,3,4,,,,,,3,4,5,,3,2,1,
,2,3,4p1<8p5>4[2:3]*p1<8p5>4[2:3],,,,,,8x,7x,6x,,,,,,,,C,
,,,,,2x,3x,4xw8b[16:3],,,,,,,,,,,,1w5[4:3]/8w4[4:3],
,,,,,,,,,,,,,,{8}A6h[4:1]/A5h[4:1]/A4h[4:1]/A3h[4:1],
{16},,,,,,,2h[6:1],
{48},,,,,1-5[12:1],,,,{16}1,{48},,,,,8-4[12:1],,,,{16}8,{48},,,,,7-3[12:1],,,,{16}7,,,,2h[8:3],
,,,,,5,6,7x-2[8:1],,4,3,7x/2-5[8:1],,1,8,2x/7,
,,,,,5/D8,,5/A8,,5/D1,,A1/5qq5b[2:1]*pp5b[2:1],,5/D2,,A5/E6/B5/E5,
,,,,,,,D6/E6/B5/E5/D5/A5h[8:3],,,,,,6q4[4:1],,,,3,
,2<7>2b[4:1],,1,,,,A7/E7/D7,,A2/E3/D3,,7/3,6/4,5bh[2:1],
,,,,,6,7,8bh[8:3],,,,,,5,6,5,
,7,6,7,,5,8,5,,8,8,6,,8,7,5h[16:5]/6<5[16:7],
,,,,,,{8}5<7[8:1],{4}7>3[4:1],3V57[4:1],
7V13[4:1],3V17b[4:1],7V53b[4:1],3>3b[2:1],
{8},,,1/A5,,6/B2,,1/C,
7/B3,4/B7,{16},,1,8,{8}1,2/7<4[8:1],,8/7p3[8:1],
8,8/7v2[8:1],{16}8,1,{8}2/7,,8h[8:1]/2>5[8:1],,1/2q6[8:1],
1,1h[8:1]/2v7[8:1],{16},8,{8}2/7,{24},,,,,,8x,7x,6x,5x/4x,3x,2x,
7x,6x,5x,4x/3x,2x,1x,{4}8-4[8:1],{8},8w4b[8:1],{48},,,,,,A8f,D8/E8/B8/E1/D1,{4},{16},,,{48},{8}E7h[2:1]/B7h[2:1]/B6h[2:1],
{24},,,,,,,,,1bx,2x,3x,
4x,5x,6x,7x,8x,1x,2x,3x,4x,5x/8bx,7x,6x,5x,4x,3x,2x,1x,8x,7x,6x,5x,2b,3,4,
5,6,7,5b,4,3,2,1,8,4b,5,6,7,8,1,6b,5,4,3,2,1,8bx,4x,8x,
4x,8x,4x,7bx,3x,7x,3x,7x,3x,6bx,2x,6x,2x,6x,2x,7bx,6x,5x,4x,3x,2x,7bx,6x,5x,
4x,3x,2x,7b,6b,5b,4b,3b,{3}2b,{48},,,,,,,{16}B1,B6,B4,
,5/4>1[8:1],,,,A5,E7,A8,,3/7<4[8:1],,,,A3,E2,A8,
,6/2>5[8:1],,,,A6,E8,A1,,8/7<4[8:1],,,,A8,E2,A3,
,6/2>5[8:1],,,,A6,E8,1x,,3x/7x-2[8:1],,,,A2/7-4[8:1],B3,A4,
,7x>2[8:1],,,,A3,E5,6x,,8x/4x>1[8:1],,,,4-7[8:1],,,,4x-1[8:1],
,,,4<7[8:1],,4x,,8x/4xqq4pp4b[2:1],,,,,,,,8xp1[16:3]*p1[16:3],
,,,,,2x,,4x/8x<5[8:1],,,,A4,E3,A1,
,5x<8[8:1]/1x>4[8:1],,,,5xp1[8:1]/1xp5[8:1],,,,5x/1x,,,,3x>8[8:1]/7x<4[8:1],,8x/4x,
,7xq3[8:1]/3xq7[8:1],,,,3x/7x,,,,5/1,{48},1/5,,,,8/5,,,,{16}8bh[4:3]/5bh[4:3],,,,,,,,,,,,,,4bv6b[2:1]/1bv7b[2:1],
,,,,,,,,,,,,{4}8xh/5xh,
{16}5,4,5,4,
3,6,3,6,7,2,7,2,{4}8<5[8:1]/1p5[8:1],8q4[8:1]/1>4[8:1],
8<5[8:1]/1p5[8:1],1/8,{8},,,5qq2>2>3<4<5<6<7>8>1>2[4:13],
,,,,,,,,{4}1-5b[4:1],
,,Ch[4:5],
{1},{4},,{16}E6,
B5,B4,E4,{8}5,A4,
B4,5,A3,B3,5,A2,B2,5,
A1,B1,8-4-7[4:1],7-5[8:1],8,7,{16},A8,,B8,
,4,,A7,,B7,,E8h[4:3],,B8h[4:3],,B1h[4:3],,E2h[4:3],,Ch[8:1],
,,,,,,,,,,,2<8[8:1],,3,,4,
,5>3[8:1],,6,,7,,1<7[8:1],,2,,3,,4>2[8:1],,5,
,6,,7-1[8:1],,1-5[8:1],,5-3[8:1],,3-7[8:1],{4},{16},,,{48}6h[8:1]/B6,
,C,,B2,,{16}A2,{48},,,,,,,,,5h[8:1]/B5,,C,,B1,,{16}A1,{48},,,4h[8:1]/B4,,C,,B8,,{16}A8,{48},,,3h[8:1]/B3,,C,
,B7,,{16}A7,{48},,,8x,,2x,,6x,,4x,,7x,,1x,,5x,,3x,,8xh,,2xh,,6xh,,,,{16}4x>2[8:1],,5/3,,6/4h,
,7<5[8:1],,8/6,,1/7h,,3>1[8:1],,4/2,,5/3h,,6>4[8:1],,7/5,
,8/6h,,1-3[8:1],,3-7[8:1],,1h/7-5[8:1],,5-1[8:1],,A7,,A5,,A1,
,7>1[8:1],,6,,5/7h,,4<6[8:1],,3,,2/4h,,8>2[8:1],,7,
,6/8h,,5-3[8:1],,3-7[8:1],,5h/7-1[8:1],,1-5[8:1],,A7,,A1,,A5,
,A6h[16:31],,B6h[16:29],,B5h[16:27],,B4h[16:25],,B3h[16:23],,A3h[16:21],{1},{4},,,{16},,,4,
5,4,5,4,
,5,{48},,{12}4,5,4,5,6,7,8v2b[12:43]/5v3b[12:43],,,A1h[48:151]/A4h[48:151],
{1},,,,{4},{16},,{8}6x>3b[8:1],
{16},,,,,,,,,,,,,,5,
5,{8}5,D6/E6/B6/E7/D7/A6h[16:1]/4bp8b[8:1],,,D8/E8/B8/E1/D1/A8h[16:1]/6bp2b[8:1],
,,D2/E2/B2/E3/D3/A2h[16:1]/8bp4b[8:1],,,{4}D4/E4/B4/E5/D5/A4h[16:1]/2bp6b[8:1],
{8},D6/E6/B6/E7/D7/A6h[16:1]/4bw8b[8:1],,4b,{24},,,7x,6x,5x,4x,8x,7x,6x,5x,1x,
8x,7x,6x,2x,1x,8x,7x,3x,2x,1x,8x,4x,3x,2x,1x,5x,4x,3x,2x,1x,8x,7x,6x,5x,
4x,3x,6x,5x,4x,3x,6x,5x,4x,3x,6x,5x,4x,3x,,{8}1b/B7fh[24:1],,6b/E3fh[24:1],
,3b/E5fh[24:1],,7b/D1fh[24:1],,2/B6/E6/B5,8/E4/B3/E3,4/E1/B1/E2,
6/A8/D1/A1,{32}B7,E8,B1,E2,B5,E6,B3,E4,B8,E1,B2,E3,B6,E7,B4,E5,{8}Cf,{16},2-4b[8:1],,,,2/1-5b[8:1],
,,,1/8-6b[8:1],{48},,,,,,,,,8/4-8b[8:1],,E4,,E3,,{16}A2,{48},,,4/1,,2,,3,,{16}4,
,7-5b[8:1],,,,7/8-4b[8:1],,,,8/1-3b[8:1],{48},,,,,,,,,1/5-1b[8:1],,E6,,E7,,{16}A7,
{48},,,5/8>3b[8:1],,7,,6,,{16}5,,Cf/8<5b[8:1],{48},,,,,,,,,8-4b[8:1]/4-8b[8:1],,3,,2,,{16}1,,8/4,,,,,,,,1x/5b,
2x,3x,4x,5x/1b,6x,7x,8x,1x/5b,2x,3x,
4x,5x/1b,6x/2,7x/3,8x/4,1b/5,4,3,2,1/5b,8,7,6,5/1b,4,3,
2,1/5b,8,7,6,5/1b-3-7b[8:3]*-3-5b[8:3],4/8,3/7,2/6,1b,{4},{16},,,{48}7x/4b,
,6x,,5x,,4x,,3x,,2x,,1x/3b,,8x,,7x,,{16}6x,{48},,,2x/5b,,3x,,4x,,5x,,6x,,7x,,8x/6b,,1x,,2x,,3x,,4x,
,5x,,{16}6x/7b,,,5,5,5,5,{4}5-8[8:1],{12}6x-3[8:1],{24}E8f,6,,,{12}7-2[8:1],
{24}E4f,7x,,,{12}1x-4[8:1],{24}E2f,1,,,{12}2-7[8:1],{24}E4f,2,,,{12}3x-6[8:1],{24}E8f,3,,,{12}4>1-5b[4:1],
{24}E6f,4,,,{8}8x<5-1b[4:1],8,{64},,,,,,,,,,,,,,,,D5,D1,A4,A8,D4,D8,A3,A7,D3,D7,A2,A6,D2,D6,A1,A5,
D1f,D5,,,,,,,{8}A7/B7/B8/A8/D8/E8fh[8:7],,B1/E2/A2/E3/B3/B2fh[48:29],{16},Cfh[48:19],,,,,,,,,,,,,,,{4}3h[16:3]/7h[16:3],
{8}5h[16:1]/A1,2h[16:1]/B1,
6h[16:1]/C,3h[16:1]/B5,{4}A5/4w8b[4.5279##0.1779],{2}A4h[1:3]/D5h[8:17]/E5h[4:9]/B4h[8:19]/E4h[2:5]/D4h[4:11],
E
