&title=Poppin' Shower
&artist=P*Light
&first=0
&des=幸せ
&des_5=幸せ
&lv_5=13+
&inote_5=(175){1},
{16}3h[8:1]/4h[8:1],,,,25,,2,1,3,,8,,8h[8:1]/4h[8:1],,,,
7h[8:1]/5h[8:1],,,,46,,46,,4,5,4,5,3h[4:1],,,,
{8}4-7[8:1],4,2,1-5[8:1],1,7,8,8,
{4}1-6[8:1],1/3-8[8:1],{8}3/5h[16:1],5h[16:1],26,,
{16}6bh[8:1]/5bh[8:1],,,,2,1,2,1,3h[8:1],,,,8h[16:1],,8h[16:1],,
7h[8:1]/1h[8:1],,,,5,6,5,6,3,4,2,5,1h[4:1],,,,
8,,7h[16:1]/5h[16:1],,4,,7h[16:1]/5h[16:1],,8,2,8,2,8,7,6,5,
{4}3h[2:1],,,{16}8,1,8,1,
{1}7h[1:1],
{8}3,34,,4/2-6[8:1],,7,7x-1b[8:1],,
{1}2h[1:1],
{8}6,65,,74,{16}7,8,7,8,{48}7,E7,B6,B5,E5,,2,,,1,,,
{8}3h[2:1],,B5/E6,B7/E8,{4}6h[4:1],{16}E1,E2,E3,E4,
{8}8h[8:1],{16}1,7,2,6,2,6,{8}4,4,45,,
{16}7h[8:1],,5,6h[8:1],,4,5h[8:1],,3,4,3,4,{32}3,2,1,8,7,6,5,4,
{8}8xh[8:3]/3xh[16:3],,,Chf[8:3],,,,,
{8}7b,6,75,4,5,2,6,6,
3,4,25,3,8,8,1h[8:1]/7h[8:1],,
{8}2,3,24,5,4,7,3,3,
6,5,74,6,1,1,8h[8:1]/2h[8:1],,
3h[8:1]/4h[8:1],,82,1>4[8:1],7,1,6,6,
6h[8:1]/5h[8:1],,17,8<5[8:1],2,8,3,3,
2h[8:1]/1h[8:1],,5,5,53,4,46,7,84,84,37,37,2-7[8:1]/6-3[8:1],,Cf,,
{8}6h[8:1],,24,2,{16}8,3,8,3,7,,7,,
{16}7h[8:1]/8h[8:1],,,1h[8:1]/6h[8:1],,,{8}2,{4}2-4[8:1]/4-8[8:1],2b/4b,
{8}34,{16}1,8,2,8,1,8,{8}3,3,5,4,
{16}8h[8:1],,2,7h[8:1],,1,6h[8:1],,8w4[8:1],,,,8,,,,
{8}3h[8:1],,75,7,{16}1,6,1,6,2,,2,,
{16}2h[8:1]/1h[8:1],,,8h[8:1]/3h[8:1],,,{8}7,{4}7-5[8:1]/5-1[8:1],7b/5b,
{8}7,8x/6x,1,8x/2x,{16}2,1,2x,1,{48}2x,E3,B3,B4,E5,,7,,,7,,,
{16}1h[4:3],,,8,,,8h[8:3],,,,,,,,,,
{8}2b,4,35,{16}2,2,{8}8,1,7,7,
{8}6h[8:1]/5h[8:1],,45,45,{16}2,4,2,4,1h[4:1],,,,
{8}6-4[8:1],6,3,2-8[8:1],2,7,6,6,
{4}5-2[8:1]/4-2[8:1],4-7[8:1]/5-7[8:1],45,18,
{8}7b,5,64,{16}7,7,{8}1,8,2,2,
{8}3h[8:1]/4h[8:1],,54,54,{16}7,5,7,5,8h[4:1],,,,
{8}3x-5[8:1],3,7x-1[8:1],7,{16}2,3,4,5,8,7,6,5,
{4}2,2,8-4b[8:1]/1-5b[8:1],Cf,
{8}3b/6b,2,4-7[8:1],3,24,1,1-4[8:1],,
{4}7/1-6[8:1],{8}3/1-4[8:1],2,7/1-6[8:1],8,21,,
3b/5b,2,1bx-5[8:1],8-6[8:1],1x-3[8:1],8x-4[8:1],1x,8x,
{4}2>5[4:1],5<8[4:1],8>3[4:1],C,
{8}7-4[8:1],,1h[16:1],1h[16:1],2-5[8:1],,8h[16:1],8h[16:1],
17,2,28,28,{16}7,5,6,4,5h[4:1],,,,
{16}1,,2h[16:1]/4h[16:1],,35,,2h[16:1]/4h[16:1],,1,7,1,7,4,5,2,1,
{4}8/3h[2:1],,1w5[8:1],1>1[1:2]*>1>2>3<4<5<6<7>8b[4:15],
{1}Cf,
{1},
{1},
{1},
{8}54,4,4,{16}6,5,6,,6,,6,,3,4,
{8}2,2,2,{16}6,5,7,,7,,7,,3,4,
1,8,1,8,1,8,1,8,{32}1,2,3,4,5,6,7,8,1,2,3,4,5,6,7,8,
{1}5x/1xh[4:3],
7bxh[2:1]/Cf,
2bxh[2:1]/E5f,
5bh[2:1]/A1f,
3bh[2:1]/D8f,
{4}7-4[8:1]/8-4[8:1],7b/8b,1-5[8:1]/2-5[8:1],1b/2b,
{8}7-3[8:1],7bx,8-4[8:1],8bx,1<6[8:1],1bx,2bxh[4:1],,
{8}4,43,6,65,{16}4,5,4,5,3,6,2,7,
{4}Chf[4:3],,,{16}1,8,7,6,
{8}5/1h[8:1],,24,3,{16}3,5,4,6,{8}5,64,
7-4[8:1],1-5[8:1],7,1,8<5[8:1]*>3[8:1],,8b,,
{16}2,1,2,1,3,8,4,7,{8}5V38[4:1],5,7,6,
{8}5-1[8:1],2-4[8:1],5,2,{16}6,6h[8:1],,,5b/7b,,,,
{8}4/8h[8:1],{16}2,2,6,4,5,3,{8}4,4,35,1,
4<7[8:1],2-6[8:1],4,2,8-5[8:1]*-3[8:1],,8b,,
46,46,35,35,{16}1,7,1,7,2,8,2,8,
3,,,3qq5[16:5],,,{8}3/7h[8:3],,,,,
{16}71,,6,5,6,,28,,3,4,3,,1bx/8bx,7,6,5,
43,,2,1,,1,3,,7,8x,,8,6x,,15,,
34,,2,8,2,,65,,7,1,7,1,5,6,7,8,
{8}1x/2,6x/4,7/8x,3x/5,{32}E7,E6,E5,E4,E3,E2,E1,E8,E7f,,,,3,,,,
{8}2/4h[4:1],,1h[16:1],1h[16:1],8/7h[8:1],,{16}2,6,2,6,
{16}3h[8:1],,5x,4x,7h[8:1],,5x,6x,2h[8:1],,4x,3x,8bxh[8:1],,,,
{16}5,7,5x,7,4,6,4x,6,3,5,3x,5,2x,4,1,8,
5,,,75,,,8/4h[8:3],,,,,,1,8,7,6,
{1}5bx/1bxw5[4:5],
,
,
,
E
