&title=Abyssal sky of Indicolite
&artist=tokiwa
&first=-0.073
&des=yokiwa
&des_5=yokiwa
&lv_5=14
&inote_5=(175){4},,1h[4:1],3,
{8}2,4,,3h[4:1],,6,5,6,
7,6,4,6,{4}8h[4:1],6,
{8}5,7,,5h[4:1],,3-8[8:1],2,3/4,
,7,7-3[8:1],8,{4}7,4/6,
{8}5,5<8[4:1],,8>3[4:1],,3<6[4:1],,5,
,8,{4}1h[4:1],3,2/4,
{8}6,4,,8/6,,1,1-5[8:1],6,
{4}1-4[8:1],7,5h[4:1],3,
{8}2,4,,3h[4:1],,6,4,5,
3/6,4,5/7,6,{4}5/3h[4:1],5,
{8}4,6,,5h[4:1],,8-3[8:1],7,8,
,6,6-1[8:1],5,{4}6,3h[8:1],
4h[8:1]/5h[8:1],5h[8:1]/6h[8:1],7h[8:1]/6h[8:1],8h[8:1]/7h[8:1],
8h[8:1]/1h[8:1],1h[8:1]/2h[8:1],{8}3/5,3,6/4,6,
4/2h[8:1],4,5/7h[8:1],5,{16}4,5,3,6,2,7,1,8,
1-5[8:1],8,1,8,{4}1b,Cf,{16}6,5,{8}6,
4/7-3[8:1],4-8[8:1],7,4,,2/1,{4}3>8[8:1]/8<5[8:1],
3/8,{8}4,3/5,{4}6h[8:1]/2h[8:1],{16}3,4,{8}3,
5/2-6[8:1],8-4[8:1],2>5b[8:1],8,2,6,7,8,
{16}1,1,{8}8,1,8/2,{4}3h[8:1]/7h[8:1],{16}5,5,{8}5,
6/4-8[8:1],7-4[8:1],4,7,,2/1,{4}1/2-5[8:1],
{8}8,8,7,6,{16}5/3,2,1,8,4,5,6,7,
4,3,2,1,5,6,7,8,{4}2/1b-5[8:1],{8}3,3b-7[8:1],
,,{4}8bw4b[8:1],8/Cf,{16}2,1,{8}2,
3/8-4[8:1],3-7[8:1],8,3,,5/6,{4}7<4[8:1]/4>1[8:1],
4/7,8-4[8:1],4/8b,{16}3,4,{8}3,
5/2,1,6/4,8>4[4:1],,5,6,7,
8/2,5/6,8/1,4/3,{4}6h[8:1]/2h[8:1],{16}8,8,{8}8,
1/7-4[8:1],2-6[8:1],7,2,,4/3,{4}4/3>8[8:1],
{8}7,7,6,6,{16}4/5,3,2,1,5,6,7,8,
2,3,4,5,8,7,6,5,2,2,{8}1,4/3,5/6,
{16}8,7,8,7,{4}8w4[8:1],8b,{8}2,1/2-5[8:1],
,2/6<1[8:1],,6/4,,4/2,3,5/7,
6,3/4,5/2,7/8,{4}1/6h[4:1],{8}2,4/2>5[8:1],
,2/8-4[8:1],,8/1,,2,5,3,
{16}5,4,{8}6h[8:1],{16}2,1,{8}3,{4}4/8h[4:1],{8}2,4/2-6[8:1],
,2/8<5[8:1],,8/4>1[8:1],,4,,8/7,
6,5/4,3,2/1,{4}3/8h[4:1],{8}6,6-2[8:1],
,6/8-4[8:1],,8,,6h[8:1],4,5,
{16}3,4,{8}2h[8:1],5,7,{4}8/1h[4:1],{8}8,8-4[8:1],
,8/2q6[8:1],,2/5q1[8:1],,5/3>8[8:1],,4,
5,6>3[8:1],7,8,{4}1h[4:1],{8}3,3h[4:1],
,4h[4:1],,5h[4:1],,7h[4:1],,8,
{16}7,1,{8}6,5/2,4/3,{4}4/3h[4:1],{8}1,1-5[8:1],
,1/4-7[8:1],,4,,8/1,,2,
2-4[8:1],1-5[8:1],2,1,{4}Ch[4:1],{8}7,7<4[4:1],
,4>1[4:1],,1<6[4:1],,6,,5,
5,4,{24}3,2,1-4b[3:5],8-5[8:13],7,6,{2}5,
,,,7h[4:3]/B5/B4/E5,
{8},,5,5h[8:7],,,,,,,E1,
E8,{2}6h[4:3],
{4},3h[4:3],,,5h[4:3],
,,4x>1[4:1],
{8},8x<5[4:1],,,2x>5[4:1],,,6x<1[4:1],
,,{4}4,{2}5>4-8>1-5[4:3],
B2,8-2v5[2:1],
B7,6qq1[8:5],
A2,2-8s4-6[4:3],
A7,{4}8-6-2[2:1],4h,
2-8-4[2:1],8h,4-2-6[2:1],6h,
8h,8h[4:1],{8}4,5/3h,6,4/7h,
3,5/2h,6,3/7h,{16}2,1,3,8,4,7,5,6,
{24}4,8,4,8,4,8,{4}4b/Cfh[4:1],1-5[8:1],1>4[8:1],
1/6-2[8:1],{8}8,8-4[8:1],,5/8,6,7/1,
2,3/8,{4}7/4>1[8:1],6/4-8[8:1],4/7-3[8:1],
7<4[8:1],{8}2/7,2-5[8:1],,6,7,8/2,
3,4/7,6,5/2,{4}1-5[8:1]/6-1[8:1],6/1,
{8}4/3,4/3>8[4:1],,8<5[4:1],,5>2[4:1],,E1/D1,
,E8/D8,,E7/D7,,5/6,{4}7h[4:1]/4h[4:1],
{8},5h[4:1]/2h[4:1],,,1h[4:1]/6h[4:1],,,8h[4:1]/3h[4:1],
,,{4}8/3,{24}7b/8h[8:1],6,5,4,,,2b/1h[8:1],3,4,5,,,{4}8/7-3[8:1],
{8}7/1,1,,5/1,2/6,3/7,
8-5[8:1]/4-1[8:1],1/5,{4}8b/4b,{24}8b/4h[8:1],7,6,5,,,1b/5h[8:1],2,3,4,,,{4}8/7s3[8:1],
{8}1/7,1-5b[8:1],,5,6,{16}7,8,
{8}7,6/1,5/2,6/3,{4}4/7-1[8:1],2/7-5[8:1],
{8}4/7,4x-2[12:1],{24},,,7/4x-6[12:1],6,5,,,,1/4x-1[12:1],2,3,,,,8/4x-7[12:1],7,6,
,,,1/4x-8[8:1],2,3,,,,{8}8/4bx,,6/2,{4}7h[4:1]/3h[4:1],
{8},8h[8:1],4,7h[8:1],3,6h[8:1],2,{16}4,3,
5,4,{8}5,{4}6h[8:1]/3h[8:1],Cfh[4:1],8-4[8:1],
8/2>5[8:1],{8}6/2,6-1[8:1],7,6/4-8[8:1],3,4/7-3[8:1],
6,7/1-5[8:1],2,1/4,{4}7<4[8:1],{24}3/7,2,1,8,,,{4}6-2b[8:1],
{8}6/8,8h[4:1],,4,{16}1,6,{8}5h,
8,{16}1,4,{8}3h,6/2,{4}6-1[8:1]/2-5[8:1],6b/2b,
{8}7<4[8:1],7,8-4b[8:1],8,1-5[8:1],1,2>5b[8:1],2,
6<1[8:1],6,3,3,5-8[8:1]*-2[8:1],4/6,{4}5,
1-5[8:1],5/1b,{16}7b,8,7,8,6b,1,6,1,
{32}6,5,4,3,2,1,8,7,{4}6b/Cf,{16}3b,4,3,4h,2,5,2h,5,
4,6,4,6h,3b,7,3,7,2h,8,2,8,3b,7,4h,6,
5,6,4,7,5bx-8[8:1],6h,4,7,{4}5,{32}1v6[8:1]*v4[8:1],2,3,4,5,6,7,8,
{4}1b,{32}5,6,7,8,1,2,3,4,{8}5-1[8:1],2-6[8:1],5b,2b,
{16}7x,8x,{8}7x,{16}3x,4x,{8}3x,{4}2-5[8:1]/5-1[8:1],5bh/2bh,
{16}7,8,7,8,5,4,5,4,1,2,1,2,7,5,6,3,
4,2,7,8,6,2,4,3,{8}5xh/1xh,5/1,6xh/2xh,6/2,
7xh/3xh,3/7,8xh/4xh,4/8,{16}1b,5,1,5,8b,4,8,4,
{32}7b,6,5,4,3,2,1,8,3b-8[8:1]/7-4[8:1],4,5,6,7,8,1,2,{2}3bx/7bx/Cf,
,,,7h[1:2]/B5/B4/E5,
,,,4pp7<8[2:3],
,,,Ch[1:2],
{4},,,,,,7,
7/E2,
7,7/E3,7,7/E4,
7,7/E5,2,2/E6,
2,2/E7,{8}2,4,3,5,
4,6,4,5,{4}5h[4:1],3h[4:1],
{8}7,7-2[4:1],,2-5[4:1],,5-8[4:1],,8-3[4:1],
,3<8[8:3],,1,2,3,{4}4h[4:1],
B8/B7/E8,B2,B6/B5/E6,B2/E3/B3,
E8,C,
E
