&title=Hydra
&artist=James Landino vs. Akira Complex
&first=-0.67
&des=LAcomxio
&lv_5=14.4
&inote_5=(160){4},{8},,6h[16:3]/1>3q5[8:9],,,B6,
{16},,,,,,,,,,,A6,,,{8}E8,
,6/4h,{16},5/3h,,,{8}2h[16:3]/4<6q8[8:9],,,B3,
{16},,,,,,,,,,,A2,,,{8}E4,
,4/7h,{16},3/6h,,,{4}2/5-1[8:1],C/5b<4[16:15],
{16},,,,,,,,,,,B5,,,{8}E7,
,8/4h,{16},7/3h,,,6/2h,,,5,,,{8}4,
3/7h,4,{16}6,4,5,3,2h[8:1]/4h[8:1],,,6/1h[8:1],,,{8}5h[8:1]/7h[8:1],
{16},3/8h[8:1],,,{4}6h[16:3]/2-6[8:1],2b<4[8:9],B7,
,B8,,B1,
{8},4/3h[8:1],{16},2/6h[8:1],{48},,,,,,{24}7b/1>6[8:9],B7,C,B3,,,,,,,,,,,,,,,{4}E3,
,E4,
{8},7h[8:1]/5h[8:1],{16},2h[8:1]/4h[8:1],,,,,,,{4}2bh[8:1]/7bh[8:1],
{16}4,5,4,5,3,6,2,7,4b,5,3,6,2,4,3,5,
4,6,5,7,{24}8x,1,2,3,4,5,{16}6/2bv5[8:1],,,6,,,{8}7,
{16}4/8bv5[8:1],,,3,,,{8}2,{16}1,8,1,8,2,7,2,7,
{8}3,6,{4}5/4-1[8:1],4/7-3[8:1],7/1,
{8}2,3,{4}6/4h[8:1],{16}6,5,,7,{8}8-3[8:1],1,
{4}2h[8:1]/8-5[8:1],8,4/7-3[8:1],7/1,
{8}5/2h[8:1],6,{4}7/4h[8:1],{16}8,1,,6,{8}5h[8:1],7,
1/8,2,{4}3/4<7[8:1],,8/1,
{8}4/2h[8:1],5,{4}6/4h[8:1],{16}7,8,,6,{8}5-2[8:1],4,
{4}3h[8:1]/5-8[8:1],5,{2}7h[4:1]/5h[16:3],
{16}2h[4:1]/5<8[8:1],{32},,,,,,,,,,,,2,3,{16}4h[8:1]/7h[8:1],,,3/8h[8:1],,,{8}4h[8:1]/2h[8:1],
{16},6/1h[8:1],,,{4}8/4-8[8:1],4/2-6[8:1],2/8,
{8}7,6,{4}3/5h[8:1],{16}3,4/3,,2,{8}1-6[8:1],8,
{4}7h[8:1]/1-4[8:1],1,5/2-6[8:1],2/8,
{8}4/7h[8:1],3,2/5h[8:1],{16}1,2,{8}3,{16}7,6,{8}5/4,3,
2/1,8,4,{16}6,5,{4}6h[8:1],7/1,
{16}7,5,6,4,5,3,6,4,{4}5/7bh,{16}2,5,3,6,
4,7,2,6,{24}1/5,{48}8,
||This
is
a
marking~
,{24}7,6,5,4,{4}3b/7bs3[8:1],C,
{16}5x/1xs5[8:1]*-5[8:1],{32},,,,,,,,,,,,6,7,{16}8h[8:1]/3h[8:1],,,7/4h[8:1],,,{8}6h[8:1]/1h[8:1],
{16},2/5h[8:1],,,{4}3/7<4[8:1],7/1,{8}2,{16}4,3,
{8}5,4,6/4>1[8:1],7,{4}4/8,{8}6,{16}4,5,
{8}3,4,{16}2-6[8:1],4,,,{4}2/8,{8}7,{16}5,6,
{8}4,5,3/5<8[8:1],2,{4}5/1,{8}3,{16}5,4,
{8}6,5,{16}8,7,6,5,{4}4-8[8:1],2/4,
{16}2,4,3,5,4,6,3,5,{4}4/2bh,{16}7,4,6,3,
5,2,7,3,{24}8/4,1,2,3,4,5,{4}6b/2bz6[8:1],C,
{16}4x/8xz4[8:1]*-4[8:1],{32},,,,,,,,,,,,3,2,{16}1h[8:1]/6h[8:1],,,2/5h[8:1],,,{8}3h[8:1]/8h[8:1],
{16},7/4h[8:1],,,{4}2>5[8:1]/6<1[8:1],{2}2bpp5[2:3]/6bpp1[16:25],
{4},,,,,,4h[1:1],
E8,
E7,E6,5h[1:1],E4,
E3,E2,{2}8>6[2:3],
{4},,,,,,6h[1:1],
E5,
E4,E3,1,2,
3,4,{8}5h[4:1],E4,,6h[4:1]/E5,
,B3,7h[4:1],B5,4xh[1:1],E1,,E8,
,E7,,E6,5h[8:1],E4,6h[8:1],C,
7h[8:1],B3,6h[8:1],B1,5h[8:1],E3,6h[8:1],E1,
5h[8:1],E3,4,B6,4h[4:1],E6,,3h[4:1]/E5,
,B6,2h[4:1],B4,5xh[1:1],E1,,E2,
,E3,,E4,4h[8:1],E6,3h[8:1],C,
2h[8:1],B6,3h[8:1],B8,4h[8:1],E7,3h[8:1],E1,
4h[8:1],E7,{4}5,{16}1b/7h[16:3],,,3h[16:3],,,{8}4,
{16}5/2h[16:3],,,6h[16:3],,,{8}5,{16}7/4h[16:3],,,1h[16:3],,,{8}2,
{16}3,4,,3/5h[16:3],,,{8}B1,{16}8/2h[16:3],,,6h[16:3],,,{8}5,
{16}4/7h[16:3],,,3h[16:3],,,{8}4,{16}2/5h[16:3],,,8h[16:3],,,{8}7,
6/1,2/5,{16}3,4,2,{32}8,1,{8}8,{16}7,3,5,4,6,3,
5,4,5,4,6,3,7,2,5b,4,6,3,7,5,6,4,
5,3,4,2,{24}1x,8,7,6,5,4,{16}7bv4[16:1]/3b-8[16:1],,,7/3,,,{8}6/2,
{16}4bv1[16:1]/8b-5[16:1],,,4/8,,,{8}3/7,{16}4,5,4,5,3,6,3,6,
{8}B2/E3,B7/E7,{16}4h[16:1],5h,,,2b-5[8:1],1,3,8,{8}2b,{16}7,7,
5,6,3,6,4,5,2,2,7b-4[8:1],8,6,1,{8}7b,{16}2,2,
4,3,6,1,8,5,6,4,7,6h,5,4h,{8}5,{16}3,3,
1,2,4,3,8,1,6,5,7,8h,1,2h,{8}1,{16}3,3,
6,5,7,8,{32}6b,5,4,3,2,1,8,7,{16}4-7[8:1],4,5,3,{8}4b,{16}1,1,
8,2,4,3,7,4,5,4,8-3[8:1],8,1,7,{8}8b,{16}5,5,
4,6,8,7,1,1,4,3,5b,5-1[16:1],2-4[16:1],2,,5,{8}2x,
{16}8b,8-6[16:1],5-1[16:1],5,,8,{8}5x,3x/7x,{16}4,2,,5,{8}7,
1-5[8:1]/8-4[8:1],2/7,{4}8b/1b,{16}6b-1[8:1],5,7,4,{8}6b,{16}3,3,
1,2,7,8,5,3,6,6,3b-8[8:1],4,2,5,{8}3b,{16}6,6,
8,7,2
||This
is
a
marking~
,5,4,6,2,8,3,4h,5,6h,{8}5b,{16}7,7,
1,8,5,6,2,8,3,4,2,1h,8,7h,{8}8b,{16}6,6,
{24}5x/7,4,3,2,1,8,7/4x,5,6,7,8,1,{4}2bxh[8:1]/6bxh[8:1],{48}B5f/E5/E1/B1f,B4/B8,B3/B7,E3/E7,,,,,,,,,{16}7x,
5,6,4,5,3,6,4,{4}5/7bh,{16}2,5,3,6,
4,7,2,6,{24}1/5,8,7,6,5,4,{16}3b/7bs3[8:1],,,C,{8}7,1,
8w4[16:1],1/7,{16}8b,{48},,,,,,B5/B3,B6/B2,E7/E2,{16}1x/7x,,,3/8,,,{8}6/1,
4-1[8:1]/5-8[8:1],6/3,{4}D4/D6/A5f/E5/A4f,7/2-4[8:1],2/1<4[4:1],
{8}1/4,3,2,4h[8:1],{16}A8,B8,C,B3,{8}A3/5v8<4[8:3],5,
{4}2h[8:1],{16}1,1,,,{4}2/7-5[8:1],7/8>5[4:1],
{8}8/5,6,7,5h[8:1],{16}A1,B1,C,B6,{8}A6/4v1>5[8:3],4,
{4}7h[8:1],{16}6,6,,,{4}5-1[8:1],5/8<4[4:1],
{8}8,1,2,3,6/5,7,4/3,2,
1/8,7/2,{16}4h[16:1],5h,,,{2}3bV17[8:1]/7bV53[8:1],
{16}8q4b[8:1]/4q8b[8:1],{32},,,,,,,,,,,,3,2,{16}1h[8:1]/6h[8:1],,,2/5h[8:1],,,{8}3h[8:1]/8h[8:1],
{16},7/4h[8:1],,,{4}5xh[8:1]/1-5[8:1],8/1,{8}7,{16}5,6,
{8}4,5,3/5<8[8:1],2,{4}5/1,{8}3,{16}5,4,
{8}6,5,{16}7-3[8:1],5,,,{4}7/1,{8}2,{16}4,3,
{8}5,4,6/4>1[8:1],7,{4}4/8,{8}6,{16}4,5,
{8}3,4,{16}1,2,3,4,{4}5-1[8:1],7/5,
{16}7,5,6,4,5,3,6,4,{4}5/7bh,{16}2,5,3,6,
4,7,2,6,{24}1/5,8,7,6,5,4,{4}3b/7bs3[8:1],C,
{16}5x/1xs5[8:1]*-5[8:1],{32},,,,,,,,,,,,6x/3x,2/7,{16}1h[8:1]/8h[8:1],,,3h[8:1]/4h[8:1],,,{8}8h[8:1]/1h[8:1],
{16},6h[8:1]/5h[8:1],,,{4}2-6[8:1]/7-3[8:1],{2}C/2b<5[4:3]/7b>4[4:3],
E
