&title= SEISHUN://NO_HACKING
&artist=takehirotei
&first=1.36
&des=MY://ACHIEVE
&lv_5=14
&inote_5=(179){4},5h[8:3],{8},4b,(190){4},
(179){8}6,5,4,3h[8:5],{2},{8}6,
5,4,3h[8:5],{2},{8}6,
5,4,3h[8:3],{4},6h[4:1],
{8}3,4,5,6h[2:1],,1,1,1,
7,8,1,2h[8:5],{2},{8}7,
8,1,2h[8:5],{2},{8}7,
8,1,2h[8:3],{4},7h[4:1],
{8}3h[8:1],6h[4:1],{16},{64},,,{576},,,,,,,{288}5?qq5[0.3399##1.5084],{8}5pp5[8:9],{2}5?pp5b[0.1676##1.5084]*qq5b[0.1676##1.5084],
{1}Cf,
{8}3,4>1[4:1],5,6h[8:5],{2},{8}3,
4p8[4:1],5,6h[8:3],{4},2h[4:1],
{8}6,5,4,3h[2:1],,8,8,8,
{4}2/8,7/2,6/2,5/2,
4/6,6/3,6/2,6/1-5[8:1],
{16}1/7bx-4[16:1],{8},{16}2bx-5[16:1],{8},8bx-4[16:1],{16},1bx-5[16:1],{8},6bx,7bx,
{4}4/8bx,{8}6,6,{16}1-5[8:1],8,2,7,{4}1,
{8}6,3,3,6h[2:1],{16}4,{8},{16}3,{8},2h[4:1],
,7,7,4h[2:1],{16}5,{8},{16}6,{8},7h[4:1],
,5,5,6,{16}3,{8},{16}8,{8}2-5[8:1],8,
{4}7-4-8[4:1],{8}4,3V15[4:1],,{288}7,{144},,,,,,,,,,,,,,,,,{288}A1,{4}6h[4:1],
{8},3,3,5,{16}2/6h[8:1],{8},{16}3/5h[8:1],{8},4h[4:1],
,6,6,4,{16}7/3h[8:1],{8},{16}6/4h[8:1],{8},5<8[8:1],
4,3,2,1,{4}8,{8}2/6,6/2,
3V51[4:1],5,6,7v4[8:1],,2,2,{16}3,5,
2h[8:1],{8},{16}6/3h[8:1],{8},4h[4:1]/7q5[4:1],,7,,2,
{16}3/6h[8:1],{8},{16}4/7h[8:1],{8},8h[8:1]/5v2[4:1],,1,8,7,
{16}6h[8:1]/3h[8:1],{8},{16}5h[8:1]/2h[8:1],{8},1/8,{16}3h[8:1]/6h[8:1],{8},{16}4h[8:1]/7h[8:1],{8},5/3,
2-5[8:1],8-4[8:1],2,8,{4}1b,{8}5,6/2,
{4}3h[8:1]/7h[8:1],3h[8:1]/7h[8:1],2h[8:1]/6h[8:1],2h[8:1]/6h[8:1],
{8}1/5h[8:1],1,1/5h[8:1],1,{16}2,6,2,6,{32}3,4,5,6,7,8,1,2,
{16}3/7v4[8:1],{8},{16}2,{8},1-5[8:1],{16},6,{8},7,8,
{4},{24}4x/7x,3x/6x,{6},{24}4x/7x,3x/6x,{6},{4}1b,
5/Ch[2:1],6<1[8:1],6,{24}2,3,4,5-1[8:1],{12},{8}7-4[8:1],
5,7,2,{4}8w4[8:1],8,
{24}2,1,8,7,6,5,4,3,2,1-5[8:1],,,,,,{8}1,{4}7-4[8:1],
{8}7,3v8[8:1],,3,{4}5h[4:1],{16}2,6,3,7,
{24}4,5,6,7,8,1,2,3,4,5,{12},{4}7h[8:1],{8}7h[8:1],5h[8:1],
{4}7h[8:1],{24}8,7,6,5,4,3,2,1,8,7,6,5,{4}4-8[8:1],
{2}4qq2[8:1]*pp6[8:1],{32}E3,B3,{16}B4,{32}E8,B7,{16}B6,{32}E2,B2,{16}B3,{32}E7,B6,{16}B5,
{2}Ch[4:3],{4}7x-3[8:1],7,
{8}2x/5-7[8:1],1-5[8:1],5,1,,8/4,7-3[8:1],3V57[4:1],
{4}7,{8}2,8w4[8:1],,8,{4},6/2-5[8:1],
{8}2,7,4>8[4:1],{16}6x,7x,{8}8xV24[4:1],7,
,6,{4}6h[4:1],5q1[8:1],5/4,
{8}2>5[8:1],8-4[8:1],2,8,,3/6,2>5[8:1],5v2[16:3],
{4}2,{8}7,1w5[8:1],,1,{4},3/7-4[8:1],
{8}7,2,5-1[8:1],1V35[8:3]*V75[8:3],{4}5,
{2},{4}4-1[8:1]*-7[8:1],4,
{16}8-4[8:1],2,7,1,{4}8,5/2-6[8:1],6/2,
{8}7-4[8:1],4-8[8:1],7,3,,1,{4}1v4[8:1]*p5[8:1],
1,{8}3,3<7[4:1],,7q4[2:1]*>4[2:1],{4},,,8xw4[8:1],
8,
2-5[8:1]/6-4[8:1],2/6,3-8[8:1],3/7p5[8:3],
{8}7,{4},{8}1h[4:1],,5,2/6,3/7,
{16}4bx/8bx,{8},{16}5b/6b,{8},1bx/5bx,{16},4b/3b,{8},3bx/7bx,4b/8b,
{1}5bxqq2[2:1]/1bxqq6[2:1],
{4}5x,5,5,5,
4x,6,6,{8}6,6,
{4}3x,7,7,7,
2x,8,1xw5[8:1],1x,
{16}3x,6,4,5,2,4,3,5,4,6,5,7,4,6,3,5,
2,6,3,7,4,8,3,7,2,6,1,5,8,4,1,5,
2x,3,6x,5,1x,2,7x,6,{32}2x,3,4,5,6,7,8,1,2,3,4,5,6,7,8,1,
{24}5x/2x,6x/3x,{6},{24}5x/2x,6x/3x,{6},{4}8b/C,{16}1,8,1,8,
{8}1-3[8:1],3V51[4:1],7,6h[4:1],{4},{16}7,2,7,2,
{8}8-6[8:1],6V48[4:1],2,3h[4:1],{4},{16}4,6,4,6,
{8}4-2[8:1],2V84[4:1],5,6h[4:1],{4},{8}7-5[8:1],5-1[8:1],
4,3,2h[8:3],8-4-8[4:1],,8,3,2,
1,{16}1-4-6[4:1],1,{8}1,1,,7,8,1,
4-2[8:1],1-6[8:1],4,1,,1,2,3,
7-4-1[4:1],4-2[8:1],{4}7,{8},8,7/3,6/4,
2-8-6[4:1],8-4[8:1],{4}2,{8},3/5,2v5[8:1]/6-1[8:1],{288}3/7,{144},,,,,,,,,,,,,,,,,{288}6b<7-1-3-5-7>8-2-4[0.3399##4.6927],
2b>3-5-7-1-3<4-6-8b[2:7],Cf,{1},,,{4},,,{16},,,{64},,,{576},,,,,{8}5h[4:1]/7h[8:1],
{4},{8}5h[8:1]/7h[4:1],{4},7/5,
{8}6h[4:1]/4h[8:1],{4},{8}6h[8:1]/4h[4:1],{4},4/6,
{8}3h[4:1]/5h[8:1],{4},{8}3h[8:1]/5h[4:1],{4},5/3,
{8}4h[4:1]/2h[8:1],{4},{8}5h[8:1]/3h[4:1],{4},4/6-4[8:1],
3/6,{8}2,2/5,,3,6v3[8:1],4,
{4}6,{8}2,2/5,,3,6>4[8:1],3,
{4}6,{8}2,2/4,,3,6-3[8:1],3,
{4}6,{8}2,2,{4}4-6[8:1],4/2-4[8:1],
2/7,{8}6,5,,7,3v6[8:1],6,
{4}3,{8}7,7/5,,4,6,3,
{4}5>2[4:1],2<7[4:1],7<4[4:1],4>1[4:1],
{2}1<4[4:1],{16}1,8,7,6,5,4,3,2,
{4}1-5[8:1],1-4[8:1]*-6[8:1],1,{8}3>8[8:1],3,
,7-4[8:1],,7/1,2,3,4-1[8:1],5,
{16}4,6,,8,{8}7-4[8:1],1,{16}7,2,,3,{8}5,3,
4/6,7,8/1,2,3/5,6,8-5[8:1]*-3[8:1],1,
{4}8-4[8:1],8<5[8:1]*>3[8:1],8,{8}4v1[8:1],4,
,5<8[8:1],,5,3,2,1-4[8:1],8,
{16}1,7,,5,{8}6-1[8:1],4,{16}6,3,,2,{8}8,3,
{4}4-2[8:1]/8-6[8:1],4-6[8:1]/8-2[8:1],4/8w4[8:1],8,
{8}2/6,3,3/7,8,8/4,3,7/3<6[8:1],6q3[24:5],
{4}3,8,7v4[8:1],7/2,
1V35[4:1],5V71[4:1],1>5[4:1],5<1[4:1],
1>2>3<4<5<6[16:5],5,7,8-5[8:1]*-3[8:1],
{288}8b-6>5-3>2-8<7-5>4-2<1-7<6-4>3-1<8b[8:51],C/8?<7-5>4-2<1-7<6-4>3-1<8-6>5-3>2-8[0.3305##8.5475],{1},,,,,,{4},,,{16},{64},,,{576},,,,,{8}4w8[2:1],
{4},,,2/6,
{8}5/4h[4:1],6,7,{16}8,1,,7x,6,5,{8}3/4h[8:1],1,
5/3h[4:1],6,7,{16}1,8,,2x,3,4,{8}6/5h[8:1],8>3[8:1],
,8/7,6,{16}5,4,,4,,4,{8}5,6,
{24}1x-5[8:1],2,3,8x-4[8:1],7,6,{8}1x>5[16:3],8x,{4}1x,{8}8-4[8:1],8,
{4}4h[4:1],{16}5,3,6,4,7v4[8:1],5,8,4,{8}7,2,
5/1h[8:1],6,{16}2,7,3,6,4-1[8:1],5,3,6,{8}4,8,
,7h[8:1],6h[8:1],5,{16}7h[8:1]/8h[8:1],{8},{16}4h[8:1]/5h[8:1],{8},2/1,
4/6,7/1-5>2[16:7],2/5,1/7,,8,7,6,
5/3,1/8-4<7[16:7],7/3,8/2,,1,2,3,
8/2-6[8:1],7/1-5[8:1],2,1>5[4:1],,6,7,8,
7/4-8[8:1],3/6-2<7[16:7],4,6,,3,4,5,
8/4-8[8:1],3/7-3[8:1],4,7>3[16:5],,5/7,6,7,
{2}8h[2:1],{16}4,4,6,6,2,2,4,3,
{2}5/2h[2:1],{16}1,1,3,3,7,7,4,5,
{2}3/6h[2:1],{16}4,4,8,8,2,2,7,6,
{2}5/1h[2:1],{16}7,7,3,3,5,5,2,3,
4/8h[8:1],{8},{16}2/1-4[16:1],{8},1/5,{16}6,{8},{16}7/8-5[16:1],{8},8/4,
{16}3,{8},{16}2/1>4[16:1],{8},1/5,{16}6,{8},{16}7/8<5[16:1],{8},8/4,
3,2/4,1,8/6,5,3/4,2,5,
{4}3-8[8:1]/4-8[8:1],4/3,{16}2,6,3,5,{8}4,{16}2x,3x,
{4}4x/6x,6,3,3,
D8/A8/B8/B7/E7/B6/B5/A5/D6,4,4,4,
D1/A1/D2/A2/B2/C/A3/B3,7,7,7,
E8/B7/E6/B6,1q6[4:1],{2}1x/6x<2[16:3]*q3[16:3],
{8}4x/7x,{16}6,5,{8}6,3/5,{16}2,4,{8}2,1/5,{32}8x/6,1,2,3,
{8}4/7,{16}3,8,{8}3,2/6,{16}5,4,{8}5,3/6,{16}2x,3,
4bx/8bx-5b[16:1],{8},{16}8b/3b,{8},1b-4b[16:1],{16},1b/6b,{8},7bx/3bx,{16}2bx/6bx,1bx/5bx,
4bx/8bx-4b[16:1],{8},{16}8bx/6bx-1b[16:1],{8},6bx/3bx-5b[16:1],{16},3bx/8bx,{8},7bx,6bx/4bx,
{4}3xv8[8:1]/5xv8[8:1],5/3,{8}1/7h[16:1],7h[16:1],1/6h[16:1],6h[16:1],
{4}1/5h[4:1],{8}2h[16:1],2h[16:1],{24}5,4,3,2,1,8,{16}4x,7x,3x,6x,
1x,{8},{16}5h[16:1],{8}4h[8:1],6,{16}3x,2/7,{8}1/8h[8:3],2,3,
{16}2-5[16:1],{8},{16}2x/6xh[8:1],{8},7h[8:1]/8h[8:1],{16},1h[8:1]/2h[8:1],{8},3b/7b,6/4,
1-5[8:1],{16}2,8,{8}1,7,8-4[8:1],{16}7,1,{8}8,{16}3,2,
{8}1q5[8:1],{16}2,8,{8}1,7,8p4[8:1],{16}7,1,{8}8,2-8[8:1],
3,2-4[8:1],5,2-6[8:1],6,2,7-1[8:1],5,
7-5[8:1],4,7,3,8h[8:1],2,6h[8:1],3,
{16}2h[8:1]/4h[8:1],{8},{16}3h[8:1]/5h[8:1],{8},4/6h[8:1],{16}5,6,4,7,3,8,2,1,
3h[8:1]/8h[8:1],{8},{16}2h[8:1]/7h[8:1],{8},6/1h[8:1],{16}7,8,6,1,5,2,4,3,
{8}5,5,5/2,5,{24}1x,2,3,6x/4,{48},{16}7,8/2x,3,{8}4/6x,
{16}7h[8:1]/5h[8:1],{8},{16}8h[8:1]/4h[8:1],{8},5h[8:1]/3h[8:1],{16},6h[8:1]/2h[8:1],{8},7-4[8:1]/3-8[8:1],6/2,
{288}7$/3p8>3b[8:19],Cf/7?p4<7[0.3305##3.1844],{4},,,{16},,,{64},,,{576},,,,,{1}C,
,{8}3/8,
{16}2,1,{8},{16}3,8,{8}4>1[6:1],7h[16:1],6h[16:1],5h[16:1],
4h[16:1],{16}2h[16:1],5,{8},4<7[6:1],1h[16:1],2h[16:1],3h[16:1],4h[16:1],
5h[16:1],{16}7h[16:1],4,{8},8V64[24:5],5h[16:1],4h[16:1],3h[16:1],2h[16:1],
1,{16}6,8,{8},{16}7,1,8,2,8,2,1-5[8:1],8,7,6,
{8}1,7,7,{16}7,4,,4,,4,{8}5,5,
2,2,2,{16}2,6,,6,,6,{8}1,1,
8,8,8,{16}8,2,,2,,2,{8}5,5,
3,3,3,{16}3,4,,4,,4,{8}2,2,
2-5[12:1],1,8,{16}7,4,,4,,4,{8}6-1[12:1],5,
6,4,3,{16}2,8,,7,,6,{8}1-4[12:1],8,
1,7,6,{16}5,3,,2,,1,{8}7-4[12:1],8,
7,2,3,{16}4,6,,7,,8,{8}3-8[12:1],7,
3/6,6,6/2,{16}3,4,,6h[16:3],,4-8[16:3],{8}3h[8:1],5,
2/4,3,4/7,{16}6,5,,7<4[8:1],,4-8[8:1],{8}7,3,
1,2,6/3,{16}4,5,,3/6,,7h[8:1],{8}2-5[12:1],8h[16:1],
2/1,7,4/6,{16}5,3-8[8:1],,3,,3,{8}5h[16:1],6h[16:1],
7/1,2,5/3,{16}4,6-1[8:1],,6,,6,{8}5,4,
3/8,7,2/6,{16}5,2-5[8:1],,2,,2,{8}1,7,
{16}4x,3,8x,7,3x,2,7x,6,{24}1x,2,3,6x,5,4,2x,3,4,7x,6,5,
{32}3x,4,5,6,7,8,1,2,3,4,5,6,7,8,1,2,{16}6,4,5,2,4,3,8,6,
7-5[8:1],{8},{16}8,{8}7-3[8:1],1,{16}7-5[8:1],2,,2,{8}7,1,
{16}7/2-4[8:1],{8},{16}6,{8}2v5[8:1],5,{16}2-4[8:1],6,,7,{8}2,8,
{16}3/7<4[8:1],{8},{16}4-8[16:1],{8}7,3,{16}2-5[8:1],1,,1,{8}2,7,
{16}6/4V28[8:1],{8},{16}8-4[16:1],{8}4,7,{16}6-1[8:1],5,,5,{8}6,3,
{16}2/8-5[8:1],{8},{16}1,{8}8,2,{16}3>8[8:1],4,,4,{8}3,6,
{16}7/1-4[8:1],{8},{16}8,{8}1,7,{16}6-2[8:1],5,,5,{8}6,4,
1/3,1/3,5/4,4/5,8/6,8/6,2/7,2/7,
3/6,{16}5,5,{8}1h[8:1],4h[8:1],{16}8-4-8[4:1],1,2,3,{4},{16}B1,
B5,B3,B7,B2,B6,B4,B8,E2,E6,E4,E8,E1,E5,E3,E7,
E2/B1,{288}B5,E6,{18},{16}B3/E4,{288}B7,E8,{18},{16}B2/E3,{288}B6,E7,{18},{16}B4/E5,{288}B8,E1,{18},{32}3x,4x,5x,6x,7x,8x,1x,2x,{8}3x/7x-4[8:1],6,
4/7-1[8:1],{16}3,3,{8}7-3[8:1],2,{16}7,1-5[8:1],,1,{8}5,6,
7/2<8[8:1],{16}6,6,{8}2-6[8:1],7,{16}2,8p4[8:1],,8,{8}4,3,
7/2>5[8:1],{16}1,8,{8}2,7,{32}2v5[8:1],1,8,7,6-1[8:1],5,4,3,{8}2,6,
4>1[8:1],{16}3,7,{8}4,8,{32}7v4[8:1],6,5,4,3v8[8:1],2,1,8,{8}7,3,
5,{16}1,2,{8}3/7,{16}8,7,{8}6/1,{16}2,3,{8}4/8,7/3,
{24}2b,3,4,6,{48},{16}6,{24}1b,2,3,5,{48},{16}5,8b,1,2,3,5/4,6,7,8,
{2}1bh[2:1]/B5h[2:1]/A5h[2:1]/E5h[2:1],A8/E8/B8,
4bh[2:1]/E7h[2:1]/D7h[2:1]/A6h[2:1],B3/A3/E4,
E2h[2:1]/A2h[2:1]/B2h[2:1]/5b<1[3:1],D1/A8/E1,
E8h[2:1]/B7h[2:1]/B8h[2:1]/1bV35[3:1],B4/E5/A4,
E4h[2:1]/A3h[2:1]/D4h[2:1]/6bV48[3:1],E8/E1/A8,
E7h[2:1]/B7h[2:1]/A7h[2:1]/2b>5-1[3:1],E1/E2/A1,
A2/E2/B2/B6h[4:1]/B5h[8:3]/E6h[2:1],B3h[8:1]/B2h[4:1]/E3h[2:1],
8bh[2:1],{4}B6/B3/B5/B4/Cfh[1000:1],4xh[12:1]/7xh[6:1],
{2}E7fh[2:1]/B6h[4:1]/A6h[4:3]/5b-2-4-8[2:1],E4/A4/D4,
{8}A1h[2:1]/E2h[2:1]/B1h[2:1]/B8fh[2:1],{4},{8}E7h[8:1]/B7h[8:1]/A7h[8:1],{2},{8}A6/A3h[2:3],
{4},{8}A4h[8:9],,A5h[8:7],,A6h[8:5],
{2},{4}B3/B6/B4/Cf/B5,{8}1h[4:3],8,
{2}A7fh[2:1]/E8h[2:1]/B7h[2:1],B2/A2/E2,
{8}6/3h[8:3],{4},{8}C,{4},{8}1,8/2,
{1}7h[4:3]/3h[8:3],
{8}E5h[2:1]/B4h[16:9]/A4h[4:3],{4},{8}B6h[4:1]/E6h[16:5]/A6h[16:7],{2},{1}3V17[1:1],
7V51[1:1],
1V35[1:1],
,8V24[1:1],
{288}4V68[1:1],{4},,,{16},,,{64},,,{576},,,,,{288}8?pp3[0.3399##1.676],
{4}8qq5[4:5],8?pp3b[0##1.676]*qq5b[0##1.676],{2},,,{1}3/5h[2:1],
{2}4h[4:3],{4}8,7,
{1}6h[2:1]/3h[4:3],
{288}7h,A2,{4},{16},,,{64},,,{576},,,,,{4}3h[4:1],4h[4:1],
{1}5h[4:3],
{2}7<4[2:1],4>1[2:1],
{1}1w5[2:3],
,{8}3h[8:3],
{4},{8}4h[8:3],{4},6h[8:3],
{8},5h[8:3],{4},4h[4:1],7,
{8}6h[8:3],{4},{8}5h[8:3],{4},3h[8:3],
{8},4h[8:3],{4},5h[4:1],2,
{8}6/3h[8:3],{4},{8}4h[8:3],{4},6h[8:3],
{8},5h[8:3],{4},4h[4:1],7,
{8}3h[4:1],6,5,6h[4:1],3,4,3h[4:1],7,
8,7h[4:1],2,1,2h[4:1],8,{4}1h[8:1],
{1},,,,,(155){4},
(190){8}7b/1b-5[8:1],3b/5bw1b[8:1],1b/8b,Cf/B8/E1/B1/B2/E3/B3/B4/E5/B5/B6/E7/B7,
E
