&title=月光花
&artist=Janne Da Arc
&first=0
&des=Phoshydriodi
&lv_5=13
&inote_5=(102)
{1},
{8},,,,,,,,
{8}1>5[16:23]*q5[2:3],,,,,,,,
{8},,,,,,,,
{8}5pp6[2:3]*qq4[2:3],,,,,,,,
{8},,,,,,,,
{8}3h[4:1]/5,,4,5,4/6h[4:1],,3,2,
{8}1h[4:1]/4,,5,6,7h[8:1],6h[8:1],5h[8:1],4h[8:1],
{8}3h[4:1],,2,4,3/5h[4:1],,6,5,
{8}3/7h[4:1],,4,6,1h[4:1]/5,,8,2,
{16}4-8[8:1]/6,,5,4,6^4[12:1],,6,,1,,1,,2/8,,7,,
{16}1h[8:1]/6,,4,3h[8:1],,5,4h[8:1],,6h[8:1],,3,,1/7,,6,,
{16}5-1[8:1],,4,5,3^5[12:1],,3,,8,,8,,1/7,,2,,
{16}4,3,5,4,6^4[12:1],,7,,3h[8:1],,,,2/5,,6,,
{16}7,4,6,3,5-1[8:1],,5,,2-7[8:1],,2,,6,,6,,
{16}8,6,1,5,2-7[8:1],,2,,5-1[8:1],,5,,4,,3,,
{16}2^4[12:1],8,2,8,2,,7,,6-3[8:1],4,6,,,,,,
{16}1/2,1/2,1/2,1/2,,3/5,3pp2[4:1]/5,3/5,,1b/7b,,,,,,,
{8}1-5[8:1]/2,,1^3[12:1]/4^7[8:1],,1/4-8[8:1],,4/7^4[8:1],,
{8}2qq3[4:1]/7,,2/4,6,8p4[8:1]*^5[8:1],5-1[8:1],8,,
{8}3-5[12:1],8,3/7-1[12:1],6,2-6[8:1]/7,,2/5-1[8:1],,
{8}5/7qq4[8:3],,2,4,3h[8:1],,2/8,4/5,
{8}8-4[8:1]/7,,8^6[12:1]/5^2[8:1],,8/5-1[8:1],,5/2<4[4:1],,
{8}2/7-3[8:1],,7,2,1>4[8:1]/4<7[8:1],,1/4,,
{8}5-1[8:1]/8,4,3^5[12:1]/5,2,7-3[8:1],6,1^6[8:1]/7,2,
{8}1pp3[8:1]/4h[8:1],,5w1[8:1],7,,,2/8,4/5,
{8}1-5[8:1]/7,3,1^3[12:1]/4-8[8:1],,1/4-1[8:1],,4/7-3[8:1],6,
{8}2pp1[4:1]/7,1,8/2,7,5v2[8:1]*v8[8:1],8p4[8:1],5,,
{8}3-8[8:1],5,3/6^3[8:1],7,2-6[8:1]/6,,2/7^2[8:1],,
{8}3p2[4:1]/7,,8,6,7h[8:1],1,1/7,4/5,
{8}2/8-4[8:1],6,8^6[12:1]/5-1[8:1],,8/5-8[8:1],,5/2V84[4:1],3,
{8}2/7-3[8:1],6,7,2,1-5[8:1]/4-7[8:1],,1/4,,
{8}8-5[8:1],5^8[8:1],8,4,1>4[8:1],4v1[8:1],1,5-7[12:1],
{8}6,5V31[8:2],4,5V73[8:2],7-4[8:1],,,,
{8}1v6[8:1]/2,3,4^1[8:1]/1,5,4/6-3[8:1],7,2/6,1,
{8}2-8[12:1]/8,6-4[12:1],2v5[8:1],6-1[8:1],2,6,{16}4,4,8,8,
{16}3>3[8:12]/7pp2[8:12],,,,,,,,,,,,,,,,
{16},,,,,,,,,,,,,,2,4,
{16}3h[16:3],,,4h[16:3],,,1h[8:1],,7h[16:3],,,3h[16:3],,,5p2[8:5],,
{16}4/6pp1[2:1],,,,,,,,,,,,,,8h[8:1],,
{16}4h[8:1],,6,,3/5,,2,2,4,4,3,,4/6,,7,,
{16}5/8h[8:1],,4,,3/5,,2,2,8,8,1,,2/4h[8:1],,3,,
{16}5,4,6,5,7h[8:1],,4,6,2h[8:1],,5,3,7h[8:1],,4,5,
{16}6,6,7,7,8,8,1/8,1/8,1/2,1/2,2/3,2/3,3/4,3/4,4qq3[8:37]/5,4pp5[16:73]/5,
{16},,,,
(87)
{16},,,,,,,,,,,,,,,,
{16},,,,,,,,,,,,,,,,
{16},,,,,,,,,,,,,,,,
{16},,,,,,,,,,,,,,,,
{8}4h[8:1]/6h[4:1],,,,3h[8:1]/5h[4:1],,,,
{8}2h[4:1]/4h[8:1],,5,3,4h[8:1]/6h[4:1],,,,
{8}5h[4:1]/7h[8:1],,8h[8:1],,2h[8:1]/6h[4:1],,4h[8:1],,
{8}3h[4:1]/5h[8:1],,5,4,6h[8:1],,{128},,,,,8<4[32:53],4q8[128:221],,,,,,,,,,,,,,,,,,,,,,,,,,
{8},,,,,,,,
{8},,,,,,,,
{8},,,,,,,,
{8},,,,,,,,
E
