&title=優しさの理由
&artist=ChouCho
&first=0
&des=Sakurago
&clock_count=4
&lv_5=13
&inote_5=(177.00)
{8},,,,,,,,
{8},,,,,,,,
{8}2/7V53V17[8:10],,,,,,,,
{8},,,,,,,,
{8}6/3qq8[8:10],,,,,,,,
{8}7h[8:2],,,,5h[8:2],,,,
{8}2/6-1-4-7[8:10],,,,,,,,
{8}Ch[8:4],,,,,,,,
{32}A6,A5,A4,A3f,{8},,,,,,,
{8},,,,,,,,
{8}1/8,,2/4,2,6/2V83-5[16:7],,C,,
{8},,8,4,6,2,4,,
{8}3/7,,5/4,5,4/5-2V84b[16:7],,B1/B2,,
{8},,2,,6/3-5[8:1]*-6[8:1],,,,
{8}4/8,,2/5,2,7/2V83-7[16:7],,B5/B6/E6,,
{8},,6,1,8,3,5,,
{8}2-4[8:1]/1-5[8:1],,1/2,,7-4[8:1]/8-4[8:1],,7/8,,
{16}2/6,,3,4,3,,5,,1,,7,,4,,,,
{8}3h[8:4]/B8,,,,,,,,
{8}5h[8:4]/C,,,,,,,,
{8}2h[8:4]/B6,,,,,,,,
{8}B7/E7,,B4,,3hx[8:2]/5hx[8:2],,,,
{8}1h[8:4]/B6/B7/E7,,,,,,,,
{8}5h[8:4]/C/B1/B8,,,,,,,,
{8}A3,C,A7,A6,A5,,,,
{8}B7/B8/E8/Chf[8:4],,,,,,,,
{8}2/5<1[8:3],,2,,2,,2,,
{8}3/8V64[8:3],,3,,3,,3,,
{8}4/5pp1[8:4],,4,,4,,4,,
{8}5/8x-3[8:1],,5,,5/3x-7[8:1],,5,,
{8}4xq5[8:4]/6x,,6,,6,,6,,
{8}4z8[8:3]/7,,7,,7,,7,,
{8}8/1-5-7-4[8:4],,8,,8,,8,,
{8}1/3,,5/6,,3/4,,2/7,,
{8}5-1[8:1],1h[8:1],,,3b-7[8:1]/7b-3[8:1],,,,
{8}2V46[8:4]/6h[8:2],,,,7,,7,,
{8}8V63[8:4],,4,,2,,2<6<2[8:7],,
{8}6h[8:2],,,,4h[8:2],,,,
{8}8,3,5,4,7h[8:2],,8,,
{8}6qq7[8:4]/3h[8:2],,,,1,,1v2-4[8:4],,
{8}8h[8:2],,,,6,,3/7,,
{8}5/2b-8[8:1],,2/6,7b-3[8:1],,7/5,4bV62[16:3],,
{8}4/6,7hb[8:2],,,8/1b-4[8:1],,1/6bpp3[8:6],,
{8}2x,,,,,,,,
{32}E5,C,E1f,,{8},,,,,,,
{16}2h[8:1]/8,,,,{16}4/5,,{8}3/6-8[8:1],,2-6[8:1]/6,3,1-4[8:1]/2,
{8},5-8[8:1]/1,,5/7-3[8:1],,7/1>4b[8:1],8x,1/6<1[8:1],
{8},6/3<6b[8:1],,3/8>3[8:1],,5-2-8-4[8:3]*-2-8-6[8:3]/8,,5,
{8},,,5,3/6,2,4/7,8,
{8}2>5[8:1]/1<6[8:1],,A1/D2f/A2,,4x/7x,4x/7xpp2[16:7],,B4/B5,
{8},3,4,5h[8:1],{16}1x,1x,{8}3h[8:1],{16}7,,{8}1h[8:1],
{8}5b-8b[8:1],{16}2,2,{8}5,3b-7[8:1],1,3,6b-4b[8:1],8,
{8}6,2b-5[8:1],3,2,7b<2b[16:3],,{32}E7,E6,E5,E4,{8}E3,
{8}1x/8x,{16},,{8}5/6,4>2[8:1]/7,,4/8-4[8:1],7,6<8[8:1]/8,
{8},2-6[8:1]/6,,2/4>2[8:1],5x,4/7-4b[8:1],,7/1-6[8:1],
{8},1/3-8b[8:1],,5-2[8:1]/3,,5/7p4b[8:3],,1/7,
{8},,,2,4/6,7,8/1,3,
{8}2b>5[8:1]/4,,7,6bv1b[8:1],,4,3qq5[16:5],8bxV64b[16:3],
{8},,,,3-8[8:1]/6-1[8:1],,3/6,,
{8}2/7<2[8:4],,,1,1,,8,,
{8}7<2b[8:4],,,1,1,,8,,
{32}7xV14[8:3]/3h[8:12],E7,B6,B5,{8}E5,,,,,,5-7-4-8-3-1b[8:6],
{8},,,,,,,,
{8}8x-5[8:1],,3/8,,2-5[8:1]/4-8[8:1],,2/4,,
{8}7,{16}2,1,2h[8:1],,{8}5,4/6,3/7pp4[8:17],,7b/2bqq4[8:15],
{8},,,,,,,,
{8},,,,,,,,
{8},,,,,,,,
{8},,,,,,,,
