&title=快乐崇拜
&artist=潘玮柏/张韶涵
&first=0.74
&des=HaPpy worship
&clock_count=4
&lv_5=13+
&inote_5=(125)
{1},,
{2},
{8},
{16},4h[16:23]/5h[16:23],,,,,,,,,
{8},,,,,,,,,,,,,,5-8[2:1],5,3,4,3,3,2,2,1-4[2:1],1,7,8,7,7,6,6,7-4[4:1],7,3,2,1-4[4:1],1,5,6,7,7v5[4:1],7,2v8[4:1],2,2,6,,1b,35,2b,46,3b,8v3[8:1],3pp5[8:1],8,2-7[8:1],1,2,5,6-3[8:1],5,6,5,4v7[8:1]/5,3,5v2[8:1]/4,6,45,3b,3,,17,36,28,36,17,36,5pp7[8:1],3,4qq2[8:1],,6,,
{32}27,36,45,,,,,,2/7qq4[4:1],36,45,,,,,,
{8}7,3,2pp5[4:1],6,2,6,7-3[8:1],3-7[8:1],7,2,2,1,2/6h[8:1],3b,3,,7-4[8:1],4V61[4:1],7,3,2-5[8:1],3,2,8,
{32}7,6,5,,,,,,2,3,4,,,,,,
{8}4bs8[8:1]/5bz1[8:1],3b/6b,4b/5b,,,
{16}2,4,3,4,3,5,4h[8:1],,5,3h[8:1],,7,7,3,8h[8:1],,3,1,2,8,1,8,,,2bv5[8:1]/8bv5[8:1],,7b/3b,,2b/8b,,,,3,3,5,4,6h[8:1],,5,,7,5,6,3,5,1,4,,4,2,5,3,6,,7,,4,4,5,5,3,,
{32}1,2,3,,8,1,2,,,,,,6,7,8,,5,6,7,,,,,,3,4,5,,2,3,4,,
{16},,6,6,4,4,5,5,3,4,2,5,1,,2,,,,6<2[4:1],,3,3,2<6[4:1],2,3h[1:0],,3h[1:0],3,,,4,4,4pp4[4:1],,6,6,4>1[32:5]*p8[32:5],,7,,,,,,,,,,
{16}74,6,5,4,36,,,,38,2,1,8,72,,,,6h[8:1],,5h[8:1],,7>2[8:1],,2<7[8:1],,,,,,,,2,,,,7,3h[4:1],8,,8,8,8,2,7,1,1,,7,7,5,5,4,4,2,2,6,3,4V68[8:1]/5V31[8:1],45,45,45,45,,,,8-3[8:1],,3>6[4:1],,8,,4,4,3,,3,,2V46[8:1],,,,7<3[8:1],,,,,,1,1,1,1,1,,1,,2,,,,2,4,3,3,6,6,5,7,7,4,,,18,,2,2,6,6,4,4,3,3,5,3,1,7,,,
{8}3V17[4:1]/4,2,35,4,4w8[8:1],,,,5/6<2[4:1],7,46,5,5w1[8:1],,,,,2V46[4:1],,6V82[4:1],,2,,6,,
{16}3h[8:1]/4h[8:1],,,5h[8:1]/7h[8:1],,,1h[8:1]/3h[8:1],,,,27,,45,,,,
{8}7V53[4:1]/8,6,71,8,,17,26,,1/2>6[4:1],3,82,1,,28,37,,2-5[8:1]/7,,7-3[8:1]/2,,7/1-6[8:1]*-5[8:1],2,1,,36,36,27,27,,
{64}1b,2,3,4,5,6,7,8,1b,,,,,,,,,,,,,,,,
{8}7-2[8:1],
{16}4,4,
{8}7,4,3-6[8:1],
{16}7,7,
{8}3,4,5v2[8:1]/4,6,4v7[8:1]/5,3,54,6b,6,,82,
{16}6,6,
{8}71,
{16}3,3,
{8}82,63,4qq2[8:1],6,5pp7[8:1],,3,,
{32}72,63,54,,,,,,7/2pp5[4:1],63,54,,,,,,
{8}2,
{16}6,6,
{8}7qq4[4:1],3,7,
{16}3,3,
{8}2-6[8:1],6-2[8:1],2,7,7,8,7/3h[8:1],6b,6,,2-5[8:1],
{16}5V38[4:1],5,
{8}2,6,7-4[8:1],6,7,1,
{32}2,3,4,,,,,,7,6,5,,,,,,
{8}4b/5b,3b/6b,2b/7b,
{16}1,1,8,2,6h[8:1],,4,,34,,56,,27,27,,,8-5[8:1],,5qq5[4:1],,8,,2,,1,,1,1,1,1,,,2<6[4:1]*v4[4:1],1,2,1,2,,,,,,3h[4:1]/5h[4:1],,,,,,,,5v8[8:1],,2,2,1v4[8:1],,1,1,7,7,7,7,37,,26,,1v2[8:1]*v2[8:1],8,1v7[8:1],8,1,,1,,3,3,6,6,4,,4h[1:0],,5v7[8:1],2,5q1[8:1],3,5,,5,,6v1[8:1],,1<6[8:1],1,6,,2,,,,34,,56,,78,,12,,23,,18,,76,,45,,36,,27,,18,,18,18,18,18,18,,2v7[8:1],2,2,,8h[8:1],,,,6v3[8:1],6,6,,5h[8:1],,,,4,4,6,4,6,5,7,6,7,6,58,,14,,23,,,,18,18,18,,2,2,6,3V52[4:1],7,,1,2<7[8:1],,,6,,5,5,5,,17,,78,18,2-6[8:1]/1,,8h[4:1],,2,,,,
{32}8,7,6,,1,8,7,,,,,,3,2,1,,4,3,2,,,,,,6,5,4,,7,6,5,,
{16},,34,34,34,,5w1[8:1],4,5,4,5,,,,,,,,2,2,6,3,7pp5[4:1],,4,4,7,3,3,,3,,3<6[8:1],3,7,3,8,,8,,36,36,45,45,45,,
{8}3V17[4:1]/4,2,35,4,4w8[8:1],,,,5/6<2[4:1],7,46,5,5w1[8:1],,,,,2V46[4:1],,6V82[4:1],,2,,6,,
{16}3h[8:1]/4h[8:1],,,5h[8:1]/7h[8:1],,,1h[8:1]/3h[8:1],,,,27,,45,,,,
{8}7V53[4:1]/8,6,71,8,,17,26,,1/2>6[4:1],3,82,1,,28,37,,2-5[8:1]/7,,7-3[8:1]/2,,7/1-6[8:1]*-5[8:1],2,1,,36,36,27,27,,
{64}1b,2,3,4,5,6,7,8,1b,,,,,,,,,,,,,,,,
