&title=白夜にて
&artist=Albemuth
&first=0.06
&des=phoshydriodi
&lv_5=13+
&inote_5=(125)
{1},
{16}2h[4:1],,,,4h[4:1],,,,5,,,6,4,5,4,5,
{16}3h[4:1],,,,1h[4:1],,,,8h[2:1],,,,7h[4:1],,,,
{16},,6,,5,,4,,3h[4:1],,,,5-7[8:1]*-1[8:1],,6,,
{16}5b,,,,2/8v3[8:1]*-5[8:1],,,,8b,,,,7^5[8:1]/1,,,,
{16}2h[4:1],,,,3-5[8:1],,,,6h[2:1],,,,7,,,,
{16}4h[2:1],,,,3,,,,5h[4:1],,,,6h[4:1],,,,
{16}7h[4:1],,5,,4,,3,,2h[8:3]/6,,,,4qq1[8:7]*pp5[8:4],,4,,
{16},,,,,,,,,,,,,,,,
{16}2/6,,,,3^5[8:1]/4,,,,3/7-4[8:1],,,,4-2[8:1]*-6[8:1],,,,
{16}4v1[8:1],,,,8,,,,2-5[8:1]/8,,,,5-3[8:1]*-7[8:1],,,,
{16}5,,,,2/8,,8,,1-6[8:1]/7,,1,,6-8[8:1]*-4[8:1],,,,
{16}6,,,,3-6[8:1],,3,,8,,8,{32}5,4,{16}3,6,1,4,
{16}1h[32:1],,,,4-2[8:1]/2,,,,6-4[8:1]/4,,,,1h[4:1],,,,
{16}3h[32:1],,,,5-7[8:1]/3,,,,1-5[8:1]/5,,,,8h[4:1],,,,
{16}6h[32:1],,,,4-1[8:1]/6,,,,1h[32:1]/4,,,,3-6[8:1],,,,
{16}1h[32:1]/3,,,,7,,4,4-8[16:3],5-1[8:1],,,,,,,,
{16}3>6[8:13]/6,,,,,,,,,,,,,,,,
{16},,,,,,,,,,,,,,,,
{16}4qq5[8:13]*qq2[8:7],,,,,,,,,,,,,,,,
{16},,,,,,,,,,,,,,,,
{16}7h[4:1],,,,1,,6h[2:1],,3,,,,5,,,,
{16}4h[2:1]/7,,,,1,,,,3,,2h[4:1],,5,,,,
{16}3h[4:1]/7,,,,5,,2h[8:5],,3,,,,1^6[8:3],,,,
{16},,,,,,,,,,,{32}1,8,{16}1,,1/7,,
{16}2b^8[8:1]/6b^8[8:1],,,,2q6[8:1]/6,,,,2/7h[4:1],,,,5,6,4,5,
{16}2^4[8:1],,,,2/5p1[8:1],,,,7qq1[8:3],,,,1h[4:1],,,,
{16},,2h[4:1],,1^4[8:1],,8h[4:1],,1,,,,7-4[8:1],,4,,
{16}3^6[8:1]/7,,,,5^2[8:1],,,,1v4[8:1]*v6[8:1],,,,1,,,,
{16}7^5[8:1]/3^5[8:1],,,,7-3[8:1]/3,,,,2h[4:1]/7,,,,4,3,5,4,
{16}7-4[8:1],,,,7/5-1[8:1],,,,2qq5[8:3],,,,8h[4:1],,,,
{16},,7h[4:1],,6^3[8:1],,4h[4:1],,6,,,,2-5[8:1],,8,,
{16}2/6-3[8:1],,,,5-1[8:1],,,,8-4[8:1],,,,1qq4[8:15]*^4[8:1],,,,
{16}1bpp6[8:13],,,,,,,,,,,,,,,,
{16},,,,,,,,,,,,,,,,
{16},,3,,4/6-4[8:1],,7,,2h[4:1]/6,,,,3-5[8:1],,2,,
{16}3/6-3[8:1],,,,2-6[8:1]/6,,,,2/7-1[8:1],,,,4/7,,,,
{16}2-5[8:1]/8,,,,2/4-8[8:1],,,,8,,,7,5,6,4,5,
{16}3-7[8:1],,,,3/8-5[8:1],,,,4-1[8:1]/8,,,,4/7h[4:1],,,,
{16}2,,6,,5/3-5[8:1],,2,,7h[4:1]/3,,,,6,,7,,
{16}4/6,,3,4,2,8,1,7,2,4,3,7,5,6,1,8,
{16}2,,,,8h[2:1],,,,{32}2,3,{16},,,5^3[8:1]*^7[8:1],,,,
{16},,,,2-4[8:1],,,,8z4[4:1],,,,,,,,
{16}1h[8:3],,,5,,,5,,3q5[4:1]/7,,,,,,,,
{16}8h[8:3],,,4,,,4,,2/6qq6[4:1],,,,,,,,
{16}1,,,,2-5[8:1]/8,,,,2/4h[4:1],,,,6-8[8:1],,,,
{16}6`4,,,,1/7-4[8:1],,,,5h[4:1]/7,,,,3,,,{32}4,5,
{16}3/6,,,,2-5[8:1]/8,,,,2/4-7[8:1],,,,6-1[8:1],,,,
{16}8-3[8:1],,,,2,,,,1/3,,3/5,,5/7,,1/7,,
{16}2b-8[8:1]/6b-1[8:1],,,,2-5[8:1]/6,,,,2/7h[4:1],,,,5,7,3,5,
{16}1^4[8:1],,,,1/5pp5[4:1]*-1[8:1],,,,5qq1[8:3],,,,1h[4:1],,,,
{16},,2h[4:1],,1^6[8:1],,8h[4:1],,1,,,,7-4[8:1],,4,,
{16}3^6[8:1]/7,,,,5^2[8:1],,,,1v4[8:1]*v6[8:1],,,,1,,,,
{16}7-4[8:1]/3-5[8:1],,,,7-3[8:1]/3,,,,2h[4:1]/7,,,,4,2,6,4,
{16}8^5[8:1],,,,8/1pp1[4:1]*v6[8:1],,,,1qq4[8:3],,,,6h[4:1],,,,
{16},,5h[4:1],,4-1[8:1],,2h[4:1],,4,,,,2^5[8:1],,8,,
{16}2/6^1[8:1],,,,2-4[8:1]/6,,,,2/5-7[8:1],,,,,,,,
{16}1,,1,,1/4^7[4:1],,1,,1,,1,,1,,1,,
{16}1,,1,,1/7^4[4:1],,1,,1,,1,,1,,1,,
{16}2,,2,,2/5^8[4:1],,2,,2,,2,,2,,2,,
{16}3,,3,,3/8^5[4:1],,3,,3,,3,,3,,3,,
{16}5p3[8:3],,,,,,,,2p1[4:1],,,,,,,,
{16}7,,{24}2,3,4,{16}5,7,3,5,{12}1,3,5,{16}7b>6[8:31],,,,
{16},,,,,,,,,,,,,,,,
{16},,,,,,,,,,,,,,,,
{16},,,,,,,,,,,,,,,,
{16},,,,,,,,,,,,,,,,
{16}3-1[8:1],,,,7-5[8:1],,,,2-8[8:1],,,,6-4[8:1],,,,
{16}1-7[8:1],,,,5-3[8:1],,,,8-4[8:1],,,,4-2[8:1],,,,
{16}6-8[8:1],,,,1-5[8:1],,,,7-3[8:1],,,,4qq2[8:5]*pp5[8:6],,,,
{16},,,,,,,,,,,,,,1,7,
{16}2b-5[8:1]/6bqq1[8:3],,,,2/6-1[8:1],,,,,,,,2,8,1,6,
{16}4^7[8:1],,,,4^1[8:1]*pp4[4:1]/3,,,,4qq8[8:3],,,,1h[4:1],,,,
{16},,2h[4:1],,1v4[8:1]*-6[8:1],,8,,1,,,,3^6[8:1],,2,,
{16}3/7^2[8:1],,,,4-8[8:1]/7,,,,1q6[8:1]*p4[8:1]/4,,,,1,,,,
{16}7^4[8:1]/3qq6[8:3],,,,7/3q7[8:1],,,,,,,,7,1,8,3,
{16}5^2[8:1],,,,5^8[8:1]*qq5[4:1]/6,,,,5pp2[8:3],,,,1h[4:1],,,,
{16},,8h[4:1],,1q5[8:1]*^4[8:1],,2,,1,,,,7^4[8:1],,3,,
{16}7/2^7[8:1],,,,2/5^2[8:1],,,,5/8^5[8:1],,,,1w5[8:1]/8,,,,
{16}1b,,,,,,,,,,,,,,,,
{16},,,,,,,,,,,,,,,,
{16},,,,,,,,,,,,,,,,
{16},,,,,,,,,,,,,,,,
{16},,,,,,,,,,,,,,,,
{16},,,,,,,,,,,,,,,,
{16},,,,,,,,,,,,,,,,
{16},,,,,,,,,,,,,,,,
{16},,,,,,,,,,,,,,,,
{16},,,,,,,,,,,,,,,,
{16},,,,,,,,,,,,,,,,
{16},,,,,,,,,,,,,,,,
{16},,,,,,,,,,,,,,,,
{16},,,,,,,,,,,,,,,,
{16},,,,,,,,,,,,,,,,
{16},,,,,,,,,,,,,,,,
{16},,,,,,,,,,,,,,,,
