&title=Perspicuus_Aestus
&artist=Ryusse
&first=0.78
&des=Yaegaki
&lv_5=14+
&inote_5=(185){4},{1},{4},,,{8}7/3,
2,1-5[8:1],1,7-3[8:1],7,2-4[8:1],2,
8-4[8:1],8,1-3[8:1],1,{16}8,7,6,5,{4}4-7[8:1],
4/1-5[8:1],{8}1/8,7,{4}6-2[8:1],6/1V35[4:1],
{8}1/5,6,{4}7-3[8:1],7/1w5[8:1],1,
7/2,{8}8-4[8:1],8,2-6[8:1],2,7-5[8:1],7,
1-5[8:1],1,8-6[8:1],8,{16}1,2,3,4,{4}5-2[8:1],
5/8-4[8:1],{8}8/1,2,{4}3-7[8:1],3/8V64[4:1],
{8}8/4,3,{4}2-6[8:1],2/8w4[8:1],8,
1b,{16}8/3,{8},{32}7,6,{4}5pp8[1:1],4,
{8}3,3,,1,{16}1,2,3,4,{4}5>2[8:1],
5,{8}8v5[8:1],8,{4}1V73[4:1],1,
{8}4,5,{4}6-2[8:1],6/8w4[8:1],8,
{8}6/2,1,8,7,2/6,5,4,3,
2/7,1,8,7,{16}1/6,2,3,4,{4}7/5-1[8:1],
{8}6/5,6,7,7,4/8,8/4,7/3,6/2,
{16}1,2,3,4,1/5<1[4:1],2,3,4,1/5,2,3,4,5,6,7,8,
{8}1/5,6,2,6z2[4:1],,1,1,1h[8:3],
{2},{8}2,3,4,5,
6h[8:3],{4},{8}7h[8:3],{4},8h[2:1],
{2},{4}1,6/2,
{8}7,6,5,4h[4:1],,1,2,8h[2:1]/3h[2:1],
{2},{8}8,7,{4}6,
{8}5h[4:1]/1h[4:1],{4},{8}2h[4:1]/6h[4:1],{4},7/8w4[8:1],
{8}8,{4},{16}3,4,{8}3,4,5,6,
7>2[8:1],7,6,5,4-7[8:1],4,3,2,
1>4[8:1],1,8,7,6/5,4,3/7,2,
1h[4:1]/6h[4:1],{4},{8}2h[4:1]/5h[4:1],{4},3h[4:1]/6h[4:1],
{8},4h[4:1]/7h[4:1],{4},{8}7,6,5/3,2,
1-6[8:1],2,3/1,4,5-2[8:1],6,7/5,8,
1,2,3/7,6,3/5,2,7/1,6,
1/5,1/5,2/6,2/6,3/7,3/7,4/8,8/4,
{16}1,2,8,3,7,4,6,5,3,4,2,5,{32}1,8,7,6,5,4,3,2,
{8}1b,7,6/2,{16}5-7[8:1],3,4,3,{8}5,2,{16}1-5[8:1],8,
2,8,{8}1,7,{16}6,5,7,5,{8}6,{16}1/3,8,7,6,
{8}5/3,2,1/8,{16}7-4[8:1],8,6,8,{8}7,1,{16}2-8[8:1],4,
3,4,{8}2,5,{16}6,4,5,4,{8}6,{16}8/7,1,2,3,
{8}4/6,7,8/1,{16}2,1,{8}3,{16}8,{32}2,3,{8}4qq3[4:1],5,
6,7,8<5[8:1],8,1,{16}1,{32}2,3,{8}4q8[16:3],7,
7,6,6,{16}1/5,2,3,4,{8}5/1,1,{16}1,8,
7,6,{8}5/1,1,{16}1/5,6/2,7/3,8/4,{8}5/1,3/7,6/2,
5V74[4:1],4,3,2,1V38[4:1],8,7,6,
5V73[4:1],4,3,2,1,8/4,1/5,6/2,
7/3,4-1[8:1],5,6/4,7-4[8:1],8,1/7,2,
3,4,{4}5/1w5[8:1],1,7/3,
{8}2,1,8,7<4[8:1],,{16}4/7,{32}3,2,{4}1,
{8}8,1,1,2>5[8:1],,{16}5/2,{32}6,7,{4}8,
{8}2,{16}2,1,3,8,4,7,5,6,3,4,2,5,1,6,
8b-4[16:1],{4},{8},{16}3/5,6/2,1/7,{8}8,2/6,6/2,
7<5[8:1],2-4[8:1],7>1[8:1],2,7<5[8:1],2-5[8:1],7>1[8:1],2,
7<5[8:1],2-6[8:1],7,2,7,7,8,2/1,
{4}3/5-8[8:1],{8}5/2,1-4[8:1],,1/7,{4}6-2[8:1],
{8}6/2,1-5[8:1],,1/7,{4}8-6[8:1]*-2[8:1],8qq6[16:3],
{8}8,1,2,3>1[8:1],8-6[8:1],3<5[8:1],8,3>1[8:1],
8-5[8:1],3<5[8:1],8,3>1[8:1],7,3,6,5,
{16}4/1,2/5,6/3,4/7,{8}8/5,{16}8/5,7/4,6/3,5/2,{8}4/1,{16}1/4,2/5,3/6,7/4,
5/8,6,7,8,1,2/6,3/7,4/8,1/5,2,3,4,5/1,6/2,{8}3/7,
8-4[8:1],4,8,3,3-6[8:1],6V48[4:1],3,8V24[16:3],
{2}7h[4:1],{8}2/4,5,6/4,7,
1/8,2,3,4/7,5,6,7/3,8,
{4}4>1[8:1]/1v6[8:1],4/1,{8}2/5,6,3/7,3/7,
6/2,{16}3,5,{8}4,2/6,7/1,{16}6,4,{8}5,3/7,
8/2,{16}7,1,{8}8,6/2,3,4,7/5,1/8,
{16}2,4,3,8,5,7,4,6,3,5,2,4,{32}1,8,7,6,5,4,3,2,
{8}1b/5b,{4},{8}6b/2b,{4},7b/3b,
{8}2/5-1[8:1],{16}3,4,{8}5/8,7,6,2/5-1[8:1],{16}3,4,{8}5/8,
7,6,2/5-1[8:1],{16}3,4,{8}5/8,7,6,3,
7/4-8[8:1],{16}6,5,{8}4/1,2,3,7/4-8[8:1],{16}6,5,{8}4/1,
2,3,7/4-8[8:1],{16}6,5,{8}4/1,2,3,4,
6/3-7[8:1],{16}5,4,{8}3/8,1,2,6/3-7[8:1],{16}5,4,{8}3/8,
1,2,6/3-7[8:1],{16}5,4,{8}3/8,1,2,3,
4b/7b,5b/8b,{16},2b/4b,{8},1b/5b,2b/6b,{16},3b/5b,{8},4b/8b,
5b/7b,{16},2b/4b,{8},8b/7b,6b/1b,2b/5b,4b/3b,
5/7,8,1/2,{16}3,5,{8}4,5/7,8,{16}3/1,4,
5,6,7,8,1/5-1[8:1],2,3,4,{8}5,7,6,1/5,
6/2,{16}3,5,{8}4,5/7,{16}8,1,{8}7,{16}6/2,5,4,3,
2,1,8/4,5,6,7,8,1,{4}2v5[8:1]/6<1[8:1],6/2,
{8}4,3,2/6,{16}1-7[8:1],2,3,4,{8}1/5,3,{16}1v6[8:1],2,
3,4,{8}5/1,3,{16}1V75[4:1],2,3,4,{8}1/5-1[8:1],3,2,
2,8,8,7/3,3/7,6/2,6/2,5/1,
{16}8,4,8,4,8,4,8,4,{32}5/1,6/2,7/3,8/4,5,6,7,8,1,2,3,4,5,6,7,8,
{1}5b/1b,
