&title=Tempestissimo
&artist=t+pazolite
&first=0
&des=
&clock_count=4
&whole_bpm=231
&demo_seek=85.194
&demo_len=35.324
&des_6=G"Taritsu"DD
&des_7=Wozzy VS GTDD
&lv_6=14+
&lv_7=嵐
&inote_6=(231){4},,,,,,,,{8}
3h[4:7]/6,,,,,,6,5,
6,,4,,5,,6,,
6h[4:6]/3,,,,3,,,,
4,,,,5,,,,
3h[4:7]/6,,,,,,6,5,
6,,4,,5,,6,,{16}
5,4,5,4,5,4,5,4,5,4,5,4,5,4,5,4,{8}
5,,,,,,6,,
4h[4:7]/5,,,,,,6,5,
3,,5,,5,,6,,
5h[4:6]/4,,,,3,,,,
4,,,,6,,,,
3h[4:7]/4,,,,,,5,4,
5,,6,,7,,8,,{24}
1xs5[4:6],1xz5[24:35],,{8},{4},,,
,,,,{16}
4b/6b,,4b/6bh[8:6],,E7,,,,E1,,,E3,,,E5,,
,,6,5,6,,45,,3,4,3,,5,4,5,3,
4b/2b,,4b/2hb[8:6],,E3,,,,E1,,,E7,,,E5,,
2-5[8:1],,5,5,2,,6,,7-3[8:1],,4,4,7,,1,,
1hb[4:8],,,,A8,,,,A2,,,,A7,,,,
A3,,,,A6,,,,A4,,,,A5,,,,
6,7,8,1,3,4,5,6,1,8,7,6,4,3,2,1,
5,4,3,2,15,84,73,62,{64}5x-2[8:1],1x-6b[8:1],{32},{16},{8},,,{8}
7xb-3[8:1],7,4-7[8:1],4,2-5[8:1],2,8-3[8:1],8,
4-1[8:1],4,7-3[8:1],7,8>4[4:1],8,{16}4,5,6,7,{8}
8-3[8:1],8,5-2[8:1],5,4^7[8:1],4,3-6[8:1],3,
1-4[8:1],1h[16:1],2-5[8:1],2,{16}6,7,8,1,{32}4,3,2,1,8,7,6,5,{8}
4b-7[8:1],4,6-2[8:1],6,8-3[8:1],8,7-4[8:1],7h[16:1],
2-5[8:1],2,8^5[8:1],8,{16}4,3,2,1,{8}8h[16:3],5,
4b-7[8:1],4,2-5[8:1],2h[16:1],8-3[8:1],8h[16:1],6-1[8:1],6h[16:1],
4^7[8:1],4h[16:1],2,3,4x-8[8:1]/5x-1[8:1],3x/6x,4x/5x,,{16}
4b/5b,,,,6b/7b,,,,1b/8b,,,2b/3b,,,4b/5b,,
,,5,3,5,,46,,7-3[8:1],,6,5,7,,4,,
5b/4b,,,,3b/2b,,,,8b/1b,,,7b/6b,,,5b/4b,,
4h[8:1],,{24}5,6,7,{16}4h[8:1],,{24}7,6,5,{16}1xw5b[8:1],,{24}6,7,8,{16}1x,,,,
2b-5[8:1],,2,,8-4[8:1],,8,,1-5[8:1],,1,,6-1[8:1],,6h[16:1],,
4b-8[8:1],,4,,5<8[8:1],,5,,1,2,3,4,5-1[8:1],,1,,
5b,,8,,72,,6,4,5b,,2,4,3b,,6,5,
7b,,1,4,3b,,57,,6,5,1,2,7h[32:1],8h[32:1],5h[32:1],4h[32:1],{8}
6b>6[4:7]/3b,6-8b[8:1],,6-4b[8:1],,6-2b[8:1],,6,
,3,3-1b[8:1],,3-5b[8:1],,3,,
4,4-8[8:1],,4/7-2[8:1],,7-5[8:1]/4-8[8:1],,4/7>4b[8:2],
,6,6,,7-5[8:1]/5-1[8:1],,75,,
26,2v5[8:1]/6,,2/8^3[8:1],,4p8[8:1]/8p4[8:1],,4<1b[4:1]/8,
,1,1,,7v4[8:1]/2-5[8:1],,72,,
73,7^4[8:1]/3,,7/1-5[8:1],,7-3[8:1]/1-7[8:1],,7>4b[4:1]/1,
,5,5,,{64}2x-5[8:1],6xv1[8:1],{32},{16},,,{64}2xp5p8<2b[4:15],6x<4q1q6[4:15],{32},{16},,,{4}
2xb/6xb,,,,
,,,,
,,,,
,,,,{16}
1,2,3,4,8,1,2,3,7,8,1,2,6,7,8,1,
5,6,7,8,3,4,5,6,1,2,3,4,7,8,1,2,
3,1,3,1,2,8,2,8,1,7,1,7,2,6,2,6,
3,5,3,5,2,6,2,6,{64}1x-6b[8:1],5x-2[8:1],{32},{16},,,,,,,{8}
7xb-3[8:1],,8pp4[2:1]/7,,5,6,7,8^5[8:1],
,8,2,3,4-2[8:1]/6-2[8:1],,46,,
1v6[8:1],,8qq4[2:1]/1,,5,4,3,2-6[8:1],
,5,5^8[8:1],,5/1-6[8:1]*-4[8:1],,1,,
7-3[8:1]/3-8[8:1],,7/3pp8[2:1],,1,2,3,3^6[8:1],
,3,7,8,1^6[8:1]/4^1[8:1],,14,,
8-4[8:1],,8/7qq3[2:1],,4,3,2,1-5[8:1],
,1,4v1b[4:1],4v7[8:1],,,,,
8-3[8:1],,8b/1,,7-3[8:1],2-5[8:1],7b,2,
6-4[8:1],3,6b-8[8:1],1,6-4[8:1]/1-4[8:1],,6b/1b,,
1-6[8:1],,1b/8,,2-6[8:1],7^4[8:1],2b,7,
3-5[8:1],{16}2b,4b,{8}3b-1[8:1],,3-5[8:1]/7-5[8:1],,37,,
6-1[8:1]/2-5[8:1],,6b/2b,,7^4[8:1],8,7b,3,
3-7[8:1],5,3b,6,6-1[8:1]/5-1[8:1],,6b/5b,,
8,1b/7b-4[8:1],6,2b-6[8:1]/7b,1,2b/5-2[8:1]*-8[8:1],4,5b,
,{16}1b,1b,{8}1b,8b/2b<5b[4:1],,,,,{16}
4,4,4,4,4,4,4,4,3h[64:1],4h[64:1],3h[64:1],4h[64:1],3h[64:1],4h[64:1],3h[64:1],4h[64:1],{8}
2-5b[4:1],2,5,6,7,,64,,{16}
5,5,5,5,5,5,5,5,6h[64:1],5h[64:1],6h[64:1],5h[64:1],6h[64:1],5h[64:1],6h[64:1],5h[64:1],{8}
7^4[4:1],7,3,2,1w5b[8:1],1,,,
3b-7[8:1],,3/1qq5[2:1],,5,4,3,2-5[8:1],
,2,1,8,7-4[8:1],1,7,2,
35,35,24,24,13,13,28,28,{16}
1,3,1,3,2,4,3,5,2,6,1,5,8q1[2:3],4q5[2:3],7,3,{4}
,,,,
,,,,{24}
1b/8b,27,36,4h[8:1]/5h[8:1],,,,,,,,,1b/2b,38,47,5h[8:1]/6h[8:1],,,,,,,,,
7b/8b,16,25,3h[24:4]/4h[24:2],,,5b,6,72,8h[24:2]/1h[24:2],,,2b/7b,36,4h[8:1]/5h[8:1],,,,E5/B4/B5/C/B1/B8/E1f,,,,,,{16}
2-6[8:1],1,3,8,2,,8,,7-3[8:1],1,6,8,7,,1,,
1>5[4:1],,,,5<5b[2:1],,,,1^3[8:1],,,,5,,,,
8h[16:1],,8h[16:1],,1b,7,1,7,2b,6,4,6,1b,5,4,5,
8b,,17,,{24}2h[48:1],3h[48:1],4h[48:1],6h[48:1],5h[48:1],4h[48:1],{16}1bh[8:1],,,8bh[8:1]/2bh[8:1],,,7b/3b,,
7b-4[8:1]/3b,,8,,74,,3,,2-5[8:1],,1,,25,,6,,
7^4[8:1],,8,,74,,3,,2v4[8:1]/5-1b[8:1],,,,,,,,
3-8[8:1],,2,,38,,7,,6-1[8:1],,5,,61,,2,,
3^8[8:1],,4h[16:1],,38,,7,,6-1[8:1]/1v4b[8:1],,,,,,,,
8b,,7-4[8:1]/2,,6,,7/3-8b[8:1],,2,,3,,A6f,,,,
1b,,7/2-6[8:1],,6,,25,,4x-7[8:1]*-8[8:1],,,,4x,,,,
1b,6,1,6,2,7,2,7,3b,8,3,8,4,1,4,1,{12}
3b,3b,3b,7b,7b,7b,5b,,2b/3b,,7b/6b,,{4}
1-5b[2:1],,1-5[2:1],,
1-5b[2:1],,1-5[2:1],,{8}
4h[16:1],4h[16:1],4h[16:1],4h[16:1],{16}3,5,3,5,3,5,3,5,
2,6,2,6,2-7b[8:1],6-3[8:1],2,6,2,,,,E5/B4/B5/Cf/B1/B8/E1,,,,
7-3[8:1],8,6,1,7,,1,,2-6[8:1],8,3,1,2,,8,,
8<4[4:1],,,,4>4b[2:1],,,,8^6[8:1],,,,4,,,,
1h[16:1],,1h[16:1],,8b,2,8,2,7b,3,5,3,8b,4,5,4,
1b,,2,8,2,,73,,6h[8:1]/4h[8:1],,,7h[8:1]/1h[8:1],,,{32}B1,C,B5,A5,{16}
6,,7-4[8:1]/3v8[8:1],,,,73,,,,15,26,3/7-3[8:1],,8,,
7/4-1[8:1],,5,,4/6-2[8:1],,7,,6v3b[8:1]/8-3b[8:1],,,,,,,,
5,,6v1[8:1]/2-5[8:1],,,,26,,,,84,73,6/2-5[8:1],,1,,
2/7-3[8:1],,8h[16:1],,7/4^1[8:1],,5,,4x/8xbw4b[8:1],,,,8xb,,,,
27,,25,,23,,21,,72,,74,,76,,78,,
7-3[8:1]/2,,7,,7/2-6[8:1],,2,,2/8-4[8:1],,8,,81,,1,,
2,5,3,6,1,7,3,5,4,4,4,4,4,4,4,4,
3,5,4,6,2,5,4,7,3,4,8,7,2,1,4,5,{8}
3b<3b[4:7]/6b,3-1[8:1],,3-5[8:1],,3-7[8:1],,3,
,6,6-8[8:1],,6-4[8:1],,6,,
5,5-1[8:1],,5/2-7[8:1],,2-4[8:1]/5-1[8:1],,5/2<5b[4:1],
,3,3,,2-4[8:1]/4-8[8:1],,24,,
73,7v4[8:1]/3,,7/2-5[8:1],,6-4[8:1]/2-6[8:1],,6<3b[4:1]/2,
,5,5,,1-5[8:1]/7-4[8:1],,17,,
26,2^5[8:1]/6,,2/8-4[8:1],,2-6[8:1]/8-2[8:1],,2<5b[4:1]/8,
,4,4,,3v8[8:1]/7-4[8:1],,7^6^5^4^3^2^1-3-5-7b[4:7]/3,,{4}
E1f,E8,E7,E6,
E5,E4,E3,2^3^4^5^6^7^8-6-4-2[4:7],
B8,B1,B2,B3,
B4,B5,B6,B7,{16}
21,,18,,87,,81,,32,,18,,67,,81,,
34,,18,,56,,1,8,2,7,3,6,45,,6,2,
7,8,7,8,{32}7,6,5,4,{16}2,1,2,1,{32}2,3,4,5,{16}8,8,{32}1h[64:1],2h[64:1],3h[64:1],4h[64:1],{16}
A5f,,7,6,7,,18,,23,,,45,,,1^4-1b[8:13]/8,,
1/8^5-8[4:6],,,,,,,,,,,,,,,,
,,,,,,,,,,,,,,,,{24}
1bs5[4:2]/8b,27,36,4/5z1[4:2],,,,,,,,,,,,,
&inote_7=(231)
{1}
,,4qq1[2:3],,5pp8[2:3],,2pp5[2:3],,
{16}
A8,D8,A7,D7,A6,D6,A5,D5,A4,D4,A3,D3,A2,D2,A1,D1,
{1}
A8,
4p1[2:3]/5,,4/5q8[2:3],,1s5[2:3]/8,,E1f,,
{8}
5b/7b,1/8,2h[8:5]/4,,
{16}
E3,,,E1,,,E7,,,,6x,5,
{8}
6,7,8v3[8:1],1,8,,
{8}
4b/2b,8/1,7h[8:5]/5,,
{16}
E7,,,E1,,,E3,,6x,,3x,4,
{8}
3,2,1/8,7,1/8,2,
{4}
8x-5[8:1],1x-4[8:1]b,8x-4[8:1],1x-5[8:1]b,
8x-3[8:1],1x-6[8:1]b,7x-3[8:1],2x-6[8:1]b,
{8}
8x,8,7,7,6,6,5,5,
{16}
4,3,2,1,8,7,6,5,
{4}
4b/8b-4[12:1],Cf,
{8}
4bx/5xh[4:7],4x,4x,4x,4x,4x,4x,4x,4x,4x,4x,4x,4x,4x,4x,4x,
4xh[1:1]/5x,5x,5x,5x,5x,5x,5x,5x,5x,
{16}
4x,5x,4x,,5x,,
{4}
3-1[12:1]b/6-8[12:1],3/6,
{8}
1bx/8xh[4:7],1x,1x,1x,1x,1x,1x,1x,1x,1x,1x,1x,1x,1x,1x,1x,
5/7,6,2/4,3,5/7,6,2/4,3,4xh[8:1]/5xh[16:3],,3/6,2/7,
{4}
1-5[12:1]b/8-4[12:1],1/8,
3bx/5bx,1b/3b,
{16}
1b/7b,,,5b/7b,,,3b/5b,,
,,4,5,
{8}
4,5,E4,E8,E2,E6,
{4}
6bx/4bx,8b/6b,
{16}
8b/2b,,,4b/2b,,,6b/4b,,
,,5,4,
{8}
5,4,E6,E2,E8,E4,
7x,7,2/7,7,1/7,7,8h[8:1]/7h[16:3],,
2x,2,7/2,2,8/2,2,1h[8:1]/2h[16:3],,
7x,5,2,4,7,
{16}
3,4,2,,6,5,7,,1,8,1,,2/7,,
A1,A2,A3,A4,A8,A7,A6,A5,
{1}
4bx>5[8:13],,
{8}
8x,8-6[8:1],,8-2[8:1],,8-4[8:1],,8,,3,3,,2-4[8:1]/6-8[8:1],,2/6,,
1x,1-3[8:1],,1-7[8:1],,1-5[8:1],,1,,6,6,,3-8[8:1]/7-4[8:1],,3/7,,
5x,5-7[8:1],,5-3[8:1],,5-1[8:1],,5,,4,4,,2-5[8:1]/6-1[8:1],,2<3[1:2]/6,,
{1}
Cf,,7>6[4:7]b,,
{4}
1h[8:1],1h[8:1]/2h[8:1],8h[8:1],8h[8:1]/7h[8:1],
1h[8:1]/2h[8:1],3h[8:1]/4h[8:1],7h[8:1]/8h[8:1],5h[8:1]/6h[8:1],
{8}
1h[16:1],1h[16:1],8h[16:1],8h[16:1],2h[16:1],2h[16:1],7h[16:1],7h[16:1],
{16}
3,6,3,6,3,6,3,,
{4}
4x-8[8:1]b/5xs1[8:1],4b/5b,
{8}
2x/3x,,4h[4:1]/6,,8,7/5,4/6,3h[4:1]/5,,
{16}
6,5,
{8}
6,7,8-2[8:1]*-3[8:1],,8,,
7x/6x,,5h[4:1]/3,,1,2/4,5/3,6h[4:1]/4,,
{16}
3,4,
{8}
1bx-4[8:1]*-3[8:1],,1bx-6[8:1]*-7[8:1],,1bx,,
1b>4[8:1],,1/7,,5<8[8:1],4,3,2h[4:1],,1-5[8:1],8-6[8:1],1,8,,7/3,,
8x<5[8:1],,8/2,,4>1[8:1],5,6,7h[4:1],,4,3-7[2:1]b,2,
{2}
,
{8}
8b-6[8:1],,8/5,,8-5[8:1],4,8,3,8-4[8:1],2,8,1,8<5[8:1]*p4[8:1],,8,,
1-3[8:1],,1/4,,1-4[8:1],5,1,6,1-5[8:1],,1b-7[8:1]*-6[8:1],,1b-3[8:1]*-4[8:1],,1b,,
8b-6[8:1],,8/5,,8-5[8:1],4,8/3,,1-3[8:1],4,1,5,1-4[8:1],5,1/6,,
8x-5[8:1],6,8,4,1x-4[8:1]b,3,1,6,8,
{16}
1x,1x,1x>2>3<4<5<6<7>8[8:3],,2/8,,
{2}
,
{8}
4xh[16:1],4xh[16:1],4xh[16:1],4xh[16:1],3h[16:1],3h[16:1],3h[16:1],3h[16:1],
6h[8:1],,7h[8:1],,8x-4[8:1],,8x,,
5xh[16:1],5xh[16:1],5xh[16:1],5xh[16:1],6h[16:1],6h[16:1],6h[16:1],6h[16:1],
3h[8:1],,2h[8:1],,1,,C,,
2x/3x,,4h[4:1]/6,,8,7/5,4/6,3h[4:1]/5,,
{16}
6,5,
{8}
6,7,8q4[8:1],1>3[8:1],8,1,
6x,6,5,5,4,4,3,3,
{16}
5x,4,5,4,6,3,6,3,7,2,7,2,8q1[2:3],1,8,1,
{1}
,,
{24}
1b/8b,27,36,4h[8:1]/5h[8:1],,,,,,,,,1b/2b,38,47,5h[8:1]/6h[8:1],,,,,,,,,
7b/8b,16,25,3h[24:4]/4h[24:2],,,5b,6,72,8h[24:2]/1h[24:2],,,2b/7b,36,4h[8:1]/5h[8:1],,,,E5/B4/B5/C/B1/B8/E1f,,,,,,{16}
2-6[8:1],1,3,8,2,,8,,7-3[8:1],1,6,8,7,,1,,
1>5[4:1],,,,5<5b[2:1],,,,1^3[8:1],,,,5,,,,
8h[16:1],,8h[16:1],,1b,7,1,7,2b,6,4,6,1b,5,4,5,
8b,,17,,{24}2h[48:1],3h[48:1],4h[48:1],6h[48:1],5h[48:1],4h[48:1],{16}1bh[8:1],,,8bh[8:1]/2bh[8:1],,,7b/3b,,
7b-4[8:1]/3b,,8,,74,,3,,2-5[8:1],,1,,25,,6,,
7^4[8:1],,8,,74,,3,,2v4[8:1]/5-1b[8:1],,,,,,,,
3-8[8:1],,2,,38,,7,,6-1[8:1],,5,,61,,2,,
3^8[8:1],,4h[16:1],,38,,7,,6-1[8:1]/1v4b[8:1],,,,,,,,
8b,,7-4[8:1]/2,,6,,7/3-8b[8:1],,2,,3,,A6f,,,,
1b,,7/2-6[8:1],,6,,25,,4x-7[8:1]*-8[8:1],,,,4x,,,,
1b,6,1,6,2,7,2,7,3b,8,3,8,4,1,4,1,{12}
3b,3b,3b,7b,7b,7b,5b,,2b/3b,,7b/6b,,{4}
1-5b[2:1],,1-5[2:1],,
1-5b[2:1],,1-5[2:1],,{8}
4h[16:1],4h[16:1],4h[16:1],4h[16:1],{16}3,5,3,5,3,5,3,5,
2,6,2,6,2-7b[8:1],6-3[8:1],2,6,2,,,,E5/B4/B5/Cf/B1/B8/E1,,,,
7-3[8:1],8,6,1,7,,1,,2-6[8:1],8,3,1,2,,8,,
8<4[4:1],,,,4>4b[2:1],,,,8^6[8:1],,,,4,,,,
1h[16:1],,1h[16:1],,8b,2,8,2,7b,3,5,3,8b,4,5,4,
1b,,2,8,2,,73,,6h[8:1]/4h[8:1],,,7h[8:1]/1h[8:1],,,{32}B1,C,B5,A5,{16}
6,,7-4[8:1]/3v8[8:1],,,,73,,,,15,26,3/7-3[8:1],,8,,
7/4-1[8:1],,5,,4/6-2[8:1],,7,,6v3b[8:1]/8-3b[8:1],,,,,,,,
5,,6v1[8:1]/2-5[8:1],,,,26,,,,84,73,6/2-5[8:1],,1,,
2/7-3[8:1],,8h[16:1],,7/4^1[8:1],,5,,4x/8xbw4b[8:1],,,,8xb,,,,
27,,25,,23,,21,,72,,74,,76,,78,,
7-3[8:1]/2,,7,,7/2-6[8:1],,2,,2/8-4[8:1],,8,,81,,1,,
2,5,3,6,1,7,3,5,4,4,4,4,4,4,4,4,
3,5,4,6,2,5,4,7,3,4,8,7,2,1,4,5,{8}
3b<3b[4:7]/6b,3-1[8:1],,3-5[8:1],,3-7[8:1],,3,
,6,6-8[8:1],,6-4[8:1],,6,,
5,5-1[8:1],,5/2-7[8:1],,2-4[8:1]/5-1[8:1],,5/2<5b[4:1],
,3,3,,2-4[8:1]/4-8[8:1],,24,,
73,7v4[8:1]/3,,7/2-5[8:1],,6-4[8:1]/2-6[8:1],,6<3b[4:1]/2,
,5,5,,1-5[8:1]/7-4[8:1],,17,,
26,2^5[8:1]/6,,2/8-4[8:1],,2-6[8:1]/8-2[8:1],,2<5b[4:1]/8,
,4,4,,3v8[8:1]/7-4[8:1],,7^6^5^4^3^2^1-3-5-7b[4:7]/3,,{4}
E1f,E8,E7,E6,
E5,E4,E3,2^3^4^5^6^7^8-6-4-2[4:7],
B8,B1,B2,B3,
B4,B5,B6,B7,{16}
21,,18,,87,,81,,32,,18,,67,,81,,
34,,18,,56,,1,8,2,7,3,6,45,,6,2,
7,8,7,8,{32}7,6,5,4,{16}2,1,2,1,{32}2,3,4,5,{16}8,8,{32}1h[64:1],2h[64:1],3h[64:1],4h[64:1],{16}
A5f,,7,6,7,,18,,23,,,45,,,1^4-1b[8:13]/8,,
1/8^5-8[4:6],,,,,,,,,,,,,,,,
,,,,,,,,,,,,,,,,{24}
1bs5[4:2]/8b,27,36,4/5z1[4:2],,,,,,,,,,,,,
