&title=クリムゾン帝王
&artist=REDALiCE
&first=-0.01
&des=Red Soxps
&lv_5=14+
&inote_5=(230)
{1},,
{8}2h[8:3],,,4h[8:3],,,3V15[4:2],,,,,,6h[4:2],,,,
{8}2h[8:3],,,4h[8:3],,,3V51[4:2],,,,,,6h[4:1],,2,,
{8}7h[8:3]/3,,,5h[8:3],,,6V84[4:2],,,,,,3h[4:1],,5,,
{8}6/2h[4:1],,6,,3h[4:1]/7,,7,,
{8}8/4h[4:2],8,8,8,{16}7,5,6h[8:1],,4-8[8:1],5,3h[8:1],,
{1}4bw8[16:9],
{8}2h[8:1],5h[8:1],3h[8:1],6h[8:1],4h[8:1],7,58,,
{8}4h[4:1]/7b,,7,,26,,7/4h[8:1],7,
{8}2/6h[8:1],3,4h[4:1]/7,,7,,26,,
{8}3-5[8:1],,6,,7-5[8:1],,4V62[8:4],,8h[4:2],,,,,,37,,
{8}2b/5h[4:1],,2,,37,,2/5h[8:1],2,
{8}3h[8:1]/7,6,5h[8:2]/2,,{16}3,6,3,6,4,7,4,7,
{16}5b-1[8:1],,,,8,,7,,6h[4:1],,,,1,2,3,4,
{8}1bs5[8:3]*v4[8:3]/5,,,,,,37,,
{8}2b-5[8:1]/6,7,2/8-4[8:1],,28,,3,3,
{8}47,6,35,2,1h[4:1]/4,,5,6,
{16}3h[16:3]/7,,,6h[16:3],,,2,,5,4,6,,3,4,2h[8:1],,
{8}5-1[8:1],,25,,{16}2,4,3,,6,5,7h[8:1],,
{16}3bV17[4:2],,,,,,5,,5h[4:1],,,,,,,,
{16}6V82[4:2],,,,,,4,,4h[4:1],,,,,,,,
{16}3h[8:1]/8,,7,5,6,,4,5,3,,6,5,7h[8:1],,4,,
{16}3,6,3,6,2-8[8:1],,,,2-4[8:1]*-6[8:1],,,,2b,,,,
{8}7h[4:2],,,,8,,1,,
{8}2h[4:2]/4,,,5,5,,6,,
{8}7h[4:2]/4,,8,8,8,,1,,
{8}2h[4:3]/4>6[4:2],,,,,,,,
{8}3h[4:1],,4,,5h[4:1]/6,,7,,
{8}8h[8:3]/3,,4,4,,5/7,5,,
{8}46,,3,5,24,,1V73[4:2],,
{8}7h[4:2],,,,,,25,,
{8}3,3,4,3,5,5,4,5,
{8}3,3,4,3,5,4,35,,
{8}6h[8:1],5,6h[8:1],4,6h[8:1],7,6h[8:1],4,
{16}56,,7,8,7h[8:1],,1,,2-6[8:1],6,3,5,2b,,,,
{8}7h[8:3],,,8,16,,16,2,3/8h[8:3],,,1,{16}27,,1,8,1h[4:2],,,,,,,,8,,,,27,,,,27,,6,,2,5,2h[8:1],,7b,,3,6,3h[8:3],,,,,,4,,25,,,,25,,6,,4h[8:3]/7,,,,,,5,,36,,5,4,5h[8:1],,3,,6,5,6,,47,,6,5,6,,47,,3,5,3,,26,,3,5,3b,,26,,1b>4[4:1],,,,,,5,,6,,,,57,,6,,2/5<8[4:1],,,,,,3,,3,,2,1,2h[4:1],,,,1<6[4:1],,,,2,,3,,4>1[4:1],,,,5,,6,,,,7,8,7b,,1,,5<8[4:1]/2,,,,,,3,,4,,,,13,,2,,1>4[4:1]/6,,,,,,7,,7,,6,5,6h[4:1],,,,5,,4,,37,,2,,7,6,5,4,1-5[8:1],2,3,4,1b/5,,,,47,,,,
{16}3,5,3,5,3h[8:1],,,,4,,4,,3,,3,,6,4,6,4,6h[8:1],,,,7b/5,,,,2,4,2,4,2h[8:1],,,,5,,5,,3,,3,,7,5,7,5,7h[8:1],,,,8b/6,,,,
{8}2h[4:1],4,4,3h[4:1],5,5,4h[4:1],6,6,57,7,{16}7,5,7,5,7,,6h[4:1],,4,,4,,5h[4:1],,3,,3,,24,,2,,53,,5,,24,,2,,15,,1,,
{8}2h[8:3]/6b,,,7,3h[8:3]/8,,,7,(220)2h[4:1]/6b,,5,3h[4:1]/4,,5,2/6,,(207)7h[8:3]/8b,,,1,2/6h[8:3],,,2,(185)3b/7h[4:1],,4,5/6h[4:1],,4,37,,(160)2h[8:3]/1b,,,8,7/4h[8:3],,,7,(130)5b/6h[4:1],,4,3h[4:1]/7,,7,2v5[16:1]/6-1[16:1],,
(230){4}2b/6b,,{16}3,7,3,7,4>5[16:13]*<3[16:13],8,4,8,
{8}4b,,,,,,,,4,4,,3,3,,2,2,
{8}1V37[4:4]/8h[4:1],,,6h[4:1],,,4h[4:3],,
{8},,,,8,,,,
{8}6V84[4:4]/1h[4:1],,,3h[4:1],,,5h[4:3],,
{8},,,,6,,7,,
{8}8h[4:1]/3V15[8:7],,,6h[4:1],,,5,,4h[8:3],,,3h[8:3],,,5,,36,,7,47,,8,48,,{6}1h[6:2]/2b,3,4,5h[6:2]/6b,7,8,
{8}1b<6[8:1],1,2,3,4>1[8:1],,5h[4:1],,
{8}8b>3[8:1],8,7,6,5<8[8:1],,4h[4:1],,
{8}1b-6[8:1],1,2,3,4-1[8:1],,5h[4:1],,
{8}8b-3[8:1],8,7,6,5-8[8:1],5,4,3,
{16}2b,1,2,1,2h[8:1],,8,,7b,5,7,5,7h[8:1],,4,,
{16}3b,6,3,6,3h[8:1],,7,,8b,4,8,4,8h[8:1],,3,,
{8}2b-6[8:5],,,,,,,,
{8}3b-5[8:1],,2b-5[8:1],,1b-5[8:1],,8b,,
{8}6h[4:1],,4,3,2/5-1[8:1],5,3,,
{8}47,6,3/5-1[8:1],2V84[4:1],,2,7,6,
{8}3h[4:1]/5,,5,6,7/4-8[8:1],4,6,,
{8}25,3,4-8[8:1]/6,7-4[8:1],,7,1,2,
{16}3,6,3,6,4-8[8:1],7,4,7,4,,,,1/7h[4:1],2,3,4,
{8}5-1[8:1],,7-4[8:1],,2-6[8:1],,8,,
{16}47,,6,5,7,,36,,2,4,3h[8:1],,8-4[8:1],7,6,5,
{8}4w8[4:2]/8b,,,,,,,,
{16}2,6,2,6,3,,5,,4-8[8:1],,,,4b,,,,
{16}7,6,5,4,1,8,7,6,1-5[8:1]/5-2[8:1],,,,,,,,
{8}46,,25,1,4-7[8:1]/8-4[8:1],,,,
{8}3h[8:1]/5,,4h[8:1]/6,,5h[4:1]/7-3[8:1],,,,
{16}4h[4:1],,,,2,1,8-4[8:1],7,6-1[8:1],,,,,,,,
{16}5h[4:1],,,,3,2,1-5[8:1],8,7-4[8:1],,,,,,,,
{16}3b/6,,3,,5b/2,,5,,3b,4,2h[8:1],,6b,5,7h[8:1],,
{16}1b,8,1,8,1,8,1,8,{16}2,3,4,5,6,7,8,1,
{1}2bV46[4:13]/7V15[4:13],,,,
{8}7h[4:2]/5>2[4:2],,,,,,6,,
{8}5<3[4:4]/3h[4:2],,,,,,,,4-8[4:1],,,,,,{16}6,2,5,3,
{16}4h[8:3],,,,,,8bw4[16:3],,,,,,,,,,
{8}2/6h[8:3],,,3,4-8[8:1]/7,,6,,
{8}1h[8:3]/5,,,6,2/7-3[8:1],,2,,
{8}1h[8:3]/4,,4,5,6/2-6[8:1],,7,,
{8}8h[8:3]/5,,5,4,3-7[8:1]/7-3[8:1],3/7,,,
{16}2-4[8:1],,,,1/2b,,,,7-5[8:1],8,7,8,7b,,,,
{16}2-5[8:1],,,,1/2b,,,,7-4[8:1],8,7,8,7b,,,,
{16}1,8,1,8,1,8,1,8,2,7,2,7,2,7,2,7,
{32}3b,4,5,6,7,8,1,2,3b,4,5,6,7,8,1,2,7b-3[8:1]/3h[4:1],,,,,,,,,,,,,,,,
{8}2b/5h[4:1],,2,3,4/7-3[8:1],8,73,,
{8}2b-8[8:1],5,2-4[8:1],6,{16}27,,7,6,5h[8:1],,3,4,
{8}2b,,74,6,5/2-6[8:1],1,26,,7-5[8:1],8-4[8:1],7>5[8:3],8,7,,{16}7,8,1,2,
{8}3b-8[8:1],,7-4[8:1]/3,,3h[4:1]/7,,{16}2,1,8,7,
{8}6-1[8:1],,2-4[8:1]/6-4[8:1],,2-6[8:1]/6,,2/6,,
{16}7b,,7,5,6,,2b/5,,2,4,3,,{16}8-4[8:1],7,6,5,
{8}4z8[8:4]*v1[8:4]/8b,,,,,,,,
{16}4-8[32:19],5,6,,4,3,2,,5,6,7,,4b,,,,
{16}7bv4[8:1],,1,,7,,1,,2,5,3,,46,,7h[8:1],,2v5[8:1],8,2,8,2,,7,,6-1[8:1],,1-5[8:1],,6,,2,,3,4,3,,26,,1,,7,8,7,,26,,5,,4/3,2,1,8,5-1[8:1],6,7,8,1/5b,,,,8,7,6,5,48,1,2,3,4/8-4[8:1],7,6,5,4/8b,,,,26,,,,
{16}3b/5,,2,,3/5b,,6,,2b/4,,1,,3/6b,,7,,1,8,1,8,1,7,1,7,2,6,2,6,3,5,3,5v2[16:7],
{1}3bv6[8:3],{24}1b,8,7,6,5,4,{32}3/7b,6,5,4,3,2,1,8,7/3b,E
