&title=Shadow Shadow
&artist=Azari
&first=0.07
&des=FANdoraxxx
&des_5=FANdoraxxx
&lv_5=13
&inote_5=(135){4},,,,,,B1,
{8}C,B5,
,B6/B5,{4}B1/B2,6/2,{8}E4,E8,
,,{4}1,2b,{8}B3/E3,B8/B7,
,2,{4}4,E2,{8}7,1,
{4}5,8,{8}4,5,B3,8,
{4}8b,B2,5,{8}B7,4,
,,{4}6/B2,2/8,{8}4,1/E6,
,8,{4}6/B3/E4,E8,{8}2,8,
{4}4,1,{8}5,4,B6,1,
{2}1b-5[4:1],{8}B6,B7,B8,4>1[2:1]/1pp4[8:7],
,,,,,,,,,,4,
2/8,6,2/5,3,4,
6/1,5,7/3,1,6,4/8,5-7[8:1]/2-4[8:1],8,
5/2,,,6,1/4,5,3/6,2,
7/4,2,7,1/6,3,7/4,1-3[8:1]/6-8[8:1],5,
6/1b,,,5,8/3,5,6/4,2/8,
2,7/4,3,4/8,5,3,6-8[8:1]/8v3[8:1],4,
6/8b,,,2,{4}7/3,{8}7,6v4[8:1]/2v4[8:1],
,,,2<7v2b[8:3],{2}7pp2b[4:1],
{8},,1,3/5,7,3/8,2,1,
7/4,8,6/2,4,{16}7,6,{8}1/5,8-6[8:1]/3-1[8:1],5,
8/3,,,7,4/1,8,2/7,3,
6/1,3,6,4/7,{16}2,3,{8}7/4,1-3[8:1]/6-8[8:1],5,
6/1b,,,8,5/2,3,7/1,3/5,
4,6/1,2,1/5,{16}8,1,{8}2,7-5[8:1]/5v2[8:1],1,
7/5b,,,3,{16}6/2,,,5,{8}6,7v8[8:1]/3v2[8:1],
,,,3<6v3b[8:3],{2}6qq3b[4:1],
{24},,,,8,7,6,5,4,3x,{48},{16}2x,{12}1x,8x,7x/B1,6x/B2,{24},{8}5xh[8:5]/B3/E4/B4,
,,,,,6h[4:1]/B1/E2/B2,,B3/E4/B4,
{4}7h,5,{2}5v6[8:1]*v4[8:1],
{4}4/6,4,{2}7v5[8:1]/1v3[8:1],
{4}3/5,2,{2}2h[4:1]/1-6[8:1],
{4}5/2,3/6,6,2,
4/7,{8}1/6,1h[8:5],{2}7s3[16:3],
{4},1,{2}2>4[8:1]/6<8[8:1],
{4}1,2/3,{2}4-2[8:1]/5-7[8:1],
{4}4p2[8:5],4,6,7b,
{32}8,1/7,{16}6bxh[16:7]/2bxh[16:7],,,,,,,,,,,{4}5x/3x,
1,{8}7,3/5,{4}2,6,
2/8,{8}1/5,2,{4}3x,6x/1x,
3,8/6,{8}2,6,3,7/5,
2,6/4,5,6/2,{4}4x,7x,
2,8/3,{8}1-3[8:1],,,4,
6/2,3,5/7,6>3[4:1],7h[4:1],,,8,
1/7h,5,8,5/3h,{16}1b,1b,1b,1b,1b,1b,1b,1b,
{24}1b,2bx/8bx,3bx/7bx,4bx/6bx,,,{8}1,3/5,7,3/8,2,1,
7/4,8,6/2,4,{16}7,6,{8}1/5,8-6b[8:1]/3-1b[8:1],5,
8b/3b,,,1/7,5,1/4,2,3,
5/8,4,6/2,8,{16}5,6,{8}7/3,1-3b[8:1]/4v7b[8:1],7,
4x/1x,,,1,4/7,1,2/8,6/4,
6,3/8,2,1/5,{16}8,1,{8}2,7-5b[8:1]/5v2b[8:1],1,
7b/5b,,,7,5b,4,2/6b,1,
,4/8,,2/6,{4}8/4,{8}1-4b[16:3]*v8b[16:3],1,
,,,3/5,7,3/8,2,1,
7/4,8,6/2,4,{16}7,6,{8}1/5,8$/3-1[8:1]`8?-6[8:1],5,
3`8,,,3,6,2/5,8,4/6,
5,3,7/5,3,{16}7,6,{8}5,6/8v5[16:3]`8?z4[16:3],4,
8,,,8,6/2,4,7,5/6,
1,4,7/3,5,{16}2/6,7/3,{8}8/4,1$/5v3[8:1]`1?<8-6[8:1],5,
1,,,6,{16}7,,,2,{8}1,8h[2:1],
,,,4,{4}1/5,{8}1,6$/2v3[8:1]`6?v5[8:1],
,,,5x<8[8:11],2,4,3,4,
2,1,3,2,{16}1,2,{8}3,2,3,
4b,,,2,8x>4[4:5],7,5,6,
5,7,8,5,{16}8,7,{8}6,5,6,
5b,,,8,2x<6[4:5],3,5,4,
5,3,2,5,{16}2,3,{8}4,5,4,
2b,,,2,{16}7/3,,,8,{8}7,6$/2v4[8:1]`6?v5[8:1],
,,,2<7pp2[4:3],{2}6v3[4:1],
{4},,2/E7,{8}1,B1,
{4}3,8,{8}C,3,5,B5,
{4}1b,B3,5,{8}2,4,
,,{4}2/B6/B7,8,{8}4,7/E3/B2/B3,
,8,{4}2/B5/E5/B4,6,{8}8,2/B7/B6/E7,
,6,{4}4/B1/B8,{8}8,5/1,,2/B5/B4/E5,
,6,{4}3/B5,{24}B5,B6,B7,B8,B1,B2,{8}E3,3$/7$/3?q3[2:1]`7?q7[2:1],
,C,,,,,1>3[0.6667##0.1111],5<7[16:1],
,E6`E2,
E
