&title=Your song*
&artist=Yun*chi
&first=0.03
&des=不会剪歌,投降TT
&lv_5=13
&lv_6=13
&inote_5=(130)
{2},,,
{2}7h[4:1]/1-5[8:1],3h[4:1]/1-5[8:1],7h[4:1]/1-5[8:1],
{8}6h[4:1],8,5h[8:1],8,
{2}2h[4:1]/8-4[8:1],6h[4:1]/8-4[8:1],2h[4:1]/8-4[8:1],
{8}3h[8:1],4h[8:1],5h[8:1],6h[8:1],
{4}1>5[4:1],5<1[4:1],1pp2[4:1],5,8<4[4:1],4>8[4:1],8qq7[4:1],4,
{4}1>5[4:1],5<1[4:1],1,5-1[8:1],5bpp5[8:3]*qq5[8:3],,
{4},3pp4[6:1],3/2-7[8:1],2pp3[6:1],2/1-6[8:1],1pp2[6:1],1/8-5[8:1],8pp8[6:1]*qq7[6:1],8,6qq5[6:1],6/7-2[8:1],7qq6[6:1],7/8-3[8:1],8qq7[6:1],8/1-4[8:1],1qq1[6:1]*>3[8:1],1,
{4}4qq2[8:1],8-5[8:1]/4b,8qq7[8:1]/1,8/4-1[8:1],4/5pp7[8:1],1-4[8:1]/5,8/1pp2[8:1],5-8[8:1]/1-6[8:1],5/1,7qq5[6:1]/3qq1[6:1],3/7,8v5[8:1]/4v1[8:1],4/8,7-3[4:1],,1w5[8:1],1b,
{1}3p5[4:3],3>7[2:1],6q4[4:3],7>2[2:1],
{2}6pp5[4:3],5,3qq4[4:3],4,6pp4[4:3],4,3qq5[8:5],6-1[6:1],
{8}4h[4:1],6,5h[4:1],3,3h[4:1],5,6h[8:1],4V26[8:3],2h[4:1],,,,5h[4:1],8,6h[8:1],2,
{8}5h[4:1],3,4h[4:1],6,5h[4:1],2,3h[8:1],8V62[8:3],6h[4:1],,,,6h[4:1],4,3h[8:1],1,
{8}5h[4:1],3,4h[4:1],6,6h[4:1],4,3,8V62[8:3]/1V37[8:3],,,,,,,4q6[4:1],2,,,4,2p8[8:3],,4,
,,4h[8:3],,,7,6,5,{16}4,5,3,6,{8}4>1[2:1],,,5,,5,7h,,8<5[2:1],,,4,,4,2b,,5>1[2:1],,
,6,,6,8h,,1<5[2:1],,,3,,3,1b,,{16}4/5,,3,4,2,,5h[4:1],,,,3,,7b,,,,5/4,,6,5,7,,4h[4:1],,,,6,,2b,,,,
{4}1h[4:1]/5pp5[4:1],5qq5[4:1],{16}1,,,,1<1[2:1]*>1[2:1],,8,2,{2}1b,{16},,2,,7,3,6,4,
{8}5-8[8:1],5,2-5[8:1],3,6-1[8:1],6,3-6[8:1],4,7-2[8:1],7,4pp6[6:1]*p8[8:1],5,4b,,1h[8:1],7b,
{8}4-1[8:1],4,7-4[8:1],6,3-8[8:1],3,6-3[8:1],5,2-7[8:1],2,5qq3[6:1]*q1[8:1],4,5b,,4,2b,
{8}1-4[8:1],2,6-1[8:1],6,2-5[8:1],3,7-2[8:1],7,3-6[8:1],4,8pp2[6:1]*p4[8:1],7,8b,,5h[8:3],3p5[4:1],,3p1[8:3],,,,1<6[8:3],4>6[2:1],,,,,,5,5,
{16}4,5,3,6,
{8}4-1[8:1],4,4/7-4[8:1],6,3-8[8:1],3,3/6-3[8:1],5,2-7[8:1],2,2/5qq3[6:1]*q1[8:1],4,5b,,8h[8:1],2b,
{8}5-8[8:1],5,5/2-5[8:1],3,6-1[8:1],6,6/3-6[8:1],4,7-2[8:1],7,7/4pp6[6:1]*p8[8:1],5,4b,,
{16}1,2,3,4,
{8}5/8-5[8:1],7,8/3-8[8:1],3,7-4[6:1],6,7/2-7[6:1],2,6-3[8:1],5,6/1q7[6:1]*>5[6:1],2,1b,,4h[8:3],6q4[6:1],,6p8[6:1],,5,,6pp5[2:1],4qq5[8:3],,,,,,
{16}1-5[8:1],,,,1>8[4:5],,,,1b,,,,,,6,,8h,,,,,,2,3,4,,,,,,3,,1h/8-4[8:1],,,,8<1[4:5],,,,8,,,,,,3,,1h,,,,,,7,6,5,,,5,,,5,,8h/1-5[8:1],,,,1>8[4:11],,,,1,,,,,,6,,8h,,,,,,7,6,5,,,,,,3,,1h,,,,,,,,5,,,,,,3,,1h,,,,,,2,3,4/5,,,4/6,,,3/5,,6,3,5,4,7-3[8:1],2,5,4,7b>2[4:7],
&inote_6=
