&title=Shower of light
&artist=イルミネーションスターズ
&first=0
&des=白川彩羽
&clock_count=4
&lv_5=14
&lv_6=14
&inote_1=
&inote_5=(204)
{8},,,,,,,,E2,E1,E3,E8,E4,E7,E5,E6,E1,E8,E2,E7,E3,E6,E4,E5,1,
{16}1,2,3,,
{8}7,3,8,4,7,3,6,2,5,1,
{16}6,2,5-1[8:1],1,6,2,5b,,,,,,,,
{4}6h[8:4],,4h[8:4],,2h[8:4],,
{16}8,2,1,3,2,4,3,5,4,6,5,7,6,8,7,1,7,1,6,8,5,7,4,6,3,5,2,4,1,3,8,,
{4}2h[8:4],,4h[8:4],,6h[8:4],,8h[8:4],,
{8}1,,1/8,1/8,2/7,2/7,3/6,3/6,
{16}4,5,4,5,4,5,4,5,
{32}4,3,2,1,8,7,6,5,4,3,2,1,8,,7,6,5b/1b,,,,
{8},,,6/8-4[8:1],6,6,6,3/5-1[8:1],3,3,3,7/8>3[8:1],7,7,7,2/1<6[8:1],2,2,2,4/3>8[8:1],4,4,4,5/6<1[8:1],5,5,5,2/3<6[8:1],2,2,2,7/8-6[8:1],,1/8,2,,4/3,4-2[8:1]/5,,4/5,6,,,8h[8:2]/3,4,5,1h[8:2]/6,5,4,
{24}1/8-4[8:1],,,,,,8/1-5[8:1],2,3,4,,,8/1,7,6,5,,,8b/4b,,,
{8},,,E8,E2,C,,,,6,,6h[8:4],,,3,3,,,,5pp1[8:4],
{16},,2-4[8:2],,,,2,,,,,,,,8h[8:4]/4h[16:1],,,,5h[16:1],,,,,,,,6,,,,6-8-5-1[8:4],,,,,,2,,2,,,,,3,,,,
{32}3,4,5,6,7,8,1,2,3,4,5/1,,,,,,6h[8:1]/2,,
{16},2,,7h[8:1]/3,,3,,8h[8:1]/4,,4,,7h[8:1]/3,,3,,8h[8:1]/5,,5,,8h[8:1]/3,,3,,3h[8:1]/8,,8,,3h[8:1]/6,,6,,2h[8:1]/7,,7,,2h[8:1]/5,,5,,5,1,6,2,5,1-5[8:1],6,2,5,1,,,,,,,,1h[8:1]/6,,6,,1h[8:1]/4,,4,,4h[8:1]/8,,8,,5h[8:1]/1,,1,,6h[8:6]/2,,2,,3,,3,,4,,4,,4,,5,6,5,6,5,6,5,6,5,6,5,,,,1p5[12:1],,1,,,,3q7[12:1],,3,,,,1,,,,1-5[12:1]/2-6[12:1],,,,1/2,,,,7,,3,,,,7v4[12:1]/3v8[12:1],,3/7,,,,,,5,1,5v2[8:1],,,,4/5,,4,,,,3-7[8:1],,3,,,,1,,,,1v4[8:1],,,,1/2,,2v7[8:1],,,,3/2,,3,,,,,,1,1,1,,,,7,8,6,1,8,1,7,2,1,2,8,3,,,1h[16:1],,2,,,7,3,,3,6,3,5,3,4h[16:1],,,,,4,2,4,3,,,,5,4,,,,5-1[8:1],,,,3v6[8:1],,3,,,,8-4[8:1],,8,,,,1,,,,2,,,,
{8}8h[8:1],C,7h[8:1],C,6h[8:1],C,1h[8:1],C,2h[8:1],C,3h[8:1],C,4,5,4,5,
{16}3,6,3,6,3,6,3,6,3,6,3,6,3,6,3,
{32}E6,B5,B4,,,,,,,,2<7-3<6[4:1],,,,,,,,B8/B1,,,,B5/B4,,,,,,,,,,,,
{24}2,,3,,3,,4,,3,,4,,4,,5,,4,,5,,5,,6,,
{16}5,,1v6[8:1]/3v6[8:1],,1/3,,1/3,,,,5w1[12:1],,,,5,,,,1x,,1x>5[8:2],,,,5<1[8:2],,,,1>5[8:2],,,,5<1[8:2],,,,1,,,,5v7[8:1],,1v3[8:1],,5,,1,,,,,,8-6[8:1],,1-5[8:1],,8,,1,,7>7[8:2],,3,,7b,,,,,,,,1h[8:1],,,,8p4[8:1],,8,,,,1-5[8:1],,7-4[8:1],,1,,7,,,,1,,1>3[8:1],,,,1-5[8:1],,8,,1,,,,
{16}4,6,3,7,2,8,1,8,8,7,1,8,8,7,2,1,1,8,2,1,1,1,1,1,1,1,1,,8p4[8:1],,,,8>3[8:1],,,,8,,,,4<8[8:1],,4h[8:2],,,,,,,,3v8[8:1]/7v4[8:1],,3h[8:1]/7h[8:1],,,,,,,,,,7h[8:1]/B3,,,6h[8:1]/B2,,,5h[8:1]/B1,,1q6[8:1],,,,1,,8-4[8:1],,,,8,,3>8[8:1],,,,3,,5-1[8:1],,,,5,,B3/B4/E4,,,,B7/B8/E8,,,,2q6[8:1],,,,2,,8p4[8:1],,,,8,,3h[8:3],,,,4,,4,,,,3/4,,7-3[8:1]/8-4[8:1],,,,7/8,,,,1h[8:2],,,,6h[8:3],,8,,,,4h[8:1],,3h[8:3],,,,7,,7h[8:1],,,,3,,1-5[8:1],,,,1w5[8:1],,,,1,,,,,,,,6h[8:1]/C,,,1h[8:1]/C,,,8h[8:1]/C,,3h[8:6]/C,,,,,,,,6h[8:2],,,,,,3/6,,6,5,6,4,6,3,6,2,6,1,6,8,6,7,6,,1h[8:6],,,,,,,,8h[8:2],,,,,,1/8,,B7,,E2,,B5,,E4,,E8,,E3,,E7,,E2,,E6,,Ch[8:4],,,,,,1b,,1b,,,,1,8,1-7-2-6-3-5[8:12],,,,,,,,5h[8:2],,,,,,,,6h[8:2],,,,,,,,7h[8:2],,,,,,,,8,4,7,3,6,2,5,1,4,8,5,1,6,2,7,3,8,4,1,5,2,6,1,5,8,4,7,3,6,2,5,1,4h[8:4],,,,,,,,6h[8:4],,,,,,,,8h[8:4],,,,,,,,2h[8:4],,,,,,,,8,,8,,1/7,,1/7,,2/6,,2/6,,3/5,,3/5,,8/4,,4/8,,2/6,,2/6,,
{32}2/6,3,4,5,6,7,8,1,2/6,3,4,5,6,7,8,1,2b/6b,,,,,,,,
{8}C/B1/B8/B4/B5/E5/E1,,3b,4,5b>2[32:3],
6,7b,8<5[32:3],1b,2,3b>8b[32:3],7,6b,5>2[32:3],6b,7,8b-5b[32:3],1,2b,3-8[32:3],4b,5,6b-3b[32:3],7,8b,1-6[32:3],2b,3,4b,,
{32}2h[8:1]/6h[8:1],,,,,,,,5,4,3,2,1,8,7,6/2,,,,,,3h[32:9],,,7h[16:3],,,,,,,,4,5,6,7,8,1,2,3/7,,,,,,,,,1h[8:2]/3,,,,4,,,,5,,,,8h[4:1]/6,,,,5,,,,4,,,,
{24}2,1,8,7,6,5,4,3b/7b,8,1,2,3,4,5b/1b,2,3,4,5,6,7bw3b[8:24]/3b,,,,,
{8},,,,,,,,,,,,,,,,,,,,,,,,,,,
{24},1bs5b[8:1]/8bz4b[8:1],,,1b/8b,,,1b/8b,,
&inote_6=(204)
{8},,,,,,,,E2,E1,E3,E8,E4,E7,E5,E6,E1,E8,E2,E7,E3,E6,E4,E5,1,
{16}1,2,3,,
{8}7,3,8,4,7,3,6,2,5,1,
{16}6,2,5-1[8:1],1,6,2,5b,,,,,,,,
{4}6h[8:4],,4h[8:4],,2h[8:4],,
{16}8,2,1,3,2,4,3,5,4,6,5,7,6,8z,7,1,7,1,6,8,5,7,4,6,3,5,2,4,1,3,8,,
{4}2h[8:4],,4h[8:4],,6h[8:4],,8h[8:4],,
{8}1,,1/8,1/8,2/7,2/7,3/6,3/6,
{16}4,5,4,5,4,5,4,5,
{32}4,3,2,1,8,7,6,5,4,3,2,1,8,,7,6,5b/1b,,,,
{8},,,6/8-4[8:1],6,6,6,3/5-1[8:1],3,3,3,7/8>3[8:1],7,7,7,2/1<6[8:1],2,2,2,4/3>8[8:1],4,4,4,5/6<1[8:1],5,5,5,2/3<6[8:1],2,2,2,7/8-6[8:1],,1/8,2,,4/3,4-2[8:1]/5,,4/5,6,,,8h[8:2]/3,4,5,1h[8:2]/6,5,4,
{24}1/8-4[8:1],,,,,,8/1-5[8:1],2,3,4,,,8/1,7,6,5,,,8b/4b,,,
{8},,,E8,E2,C,,,,6,,6h[8:4],,,3,3,,,,5pp1[8:4],
{16},,2-4[8:2],,,,2,,,,,,,,8h[8:4]/4h[16:1],,,,5h[16:1],,,,,,,,6,,,,6-8-5-1[8:4],,,,,,2,,2,,,,,3,,,,
{32}3,4,5,6,7,8,1,2,3,4,5/1,,,,,,6h[8:1]/2,,
{16},2,,7h[8:1]/3,,3,,8h[8:1]/4,,4,,7h[8:1]/3,,3,,8h[8:1]/5,,5,,8h[8:1]/3,,3,,3h[8:1]/8,,8,,3h[8:1]/6,,6,,2h[8:1]/7,,7,,2h[8:1]/5,,5,,5,1,6,2,5,1-5[8:1],6,2,5,1,,,,,,,,1h[8:1]/6,,6,,1h[8:1]/4,,4,,4h[8:1]/8,,8,,5h[8:1]/1,,1,,6h[8:6]/2,,2,,3,,3,,4,,4,,4,,5,6,5,6,5,6,5,6,5,6,5,,,,1p5[12:1],,1,,,,3q7[12:1],,3,,,,1,,,,1-5[12:1]/2-6[12:1],,,,1/2,,,,7,,3,,,,7v4[12:1]/3v8[12:1],,3/7,,,,,,5,1,5v2[8:1],,,,4/5,,4,,,,3-7[8:1],,3,,,,1,,,,1v4[8:1],,,,1/2,,2v7[8:1],,,,3/2,,3,,,,,,1,1,1,,,,7,8,6,1,8,1,7,2,1,2,8,3,,,1h[16:1],,2,,,7,3,,3,6,3,5,3,4h[16:1],,,,,4,2,4,3,,,,5,4,,,,5-1[8:1],,,,3v6[8:1],,3,,,,8-4[8:1],,8,,,,1,,,,2,,,,
{8}8h[8:1],C,7h[8:1],C,6h[8:1],C,1h[8:1],C,2h[8:1],C,3h[8:1],C,4,5,4,5,
{16}3,6,3,6,3,6,3,6,3,6,3,6,3,6,3,
{32}E6,B5,B4,,,,,,,,2<7-3<6[4:1],,,,,,,,B8/B1,,,,B5/B4,,,,,,,,,,,,
{24}2,,3,,3,,4,,3,,4,,4,,5,,4,,5,,5,,6,,
{16}5/7,,1v6[8:1]/3v6[8:1],,1/3,,1/3,,,,5w1[12:1],,,,5,,,,1x,,1x>5[8:2],,,,5<1[8:2],,,,1>5[8:2],,,,5<1[8:2],,,,1,,,,5v7[8:1],,1v3[8:1],,5,,1,,,,,,8-6[8:1],,1-5[8:1],,8,,1,,7>7[8:2],,3,,7b,,,,,,,,1h[8:1],,,,8p4[8:1],,8,,,,1-5[8:1],,7-4[8:1],,1,,7,,,,1,,1>3[8:1],,,,1-5[8:1],,8,,1,,,,
{16}4,6,3,7,2,8,1,8,8,7,1,8,8,7,2,1,1,8,2,1,1,8,1,8,1,8,1,,8p4[8:1],,,,8>3[8:1],,,,8,,,,4<8[8:1],,4h[8:2],,,,,,,,3v8[8:1]/7v4[8:1],,3h[8:1]/7h[8:1],,,,,,,,,,7h[8:1]/B3,,,6h[8:1]/B2,,,5h[8:1]/B1,,1q6[8:1],,,,1,,8-4[8:1],,,,8,,3>8[8:1],,,,3,,5-1[8:1],,,,5,,B3/B4/E4,,,,B7/B8/E8,,,,2q6[8:1],,,,2,,8p4[8:1],,,,8,,3h[8:3],,,,4,,4,,,,3/4,,7-3[8:1]/8-4[8:1],,,,7/8,,,,1h[8:2],,,,6h[8:3],,8,,,,4h[8:1],,3h[8:3],,,,7,,7h[8:1],,,,3,,1-5[8:1],,,,1w5[8:1],,,,1,,,,,,,,6h[8:1]/C,,,1h[8:1]/C,,,8h[8:1]/C,,3h[8:6]/C,,,,,,,,6h[8:2],,,,,,3/6,,6,5,6,4,6,3,6,2,6,1,6,8,6,7,6,,1h[8:6],,,,,,,,8h[8:2],,,,,,1/8,,B7,,E2,,B5,,E4,,E8,,E3,,E7,,E2,,E6,,Ch[8:4],,,,,,1b,,1b,,,,1,8,1-7-2-6-3-5[8:12],,,,,,,,5h[8:2],,,,,,,,6h[8:2],,,,,,,,7h[8:2],,,,,,,,8,4,7,3,6,2,5,1,4,8,5,1,6,2,7,3,8,4,1,5,2,6,1,5,8,4,7,3,6,2,5,1,4h[8:4],,,,,,,,6h[8:4],,,,,,,,8h[8:4],,,,,,,,2h[8:4],,,,,,,,8,,8,,1/7,,1/7,,2/6,,2/6,,3/5,,3/5,,8/4,,4/8,,2/6,,2/6,,
{32}2/6,3,4,5,6,7,8,1,2/6,3,4,5,6,7,8,1,2b/6b,,,,,,,,
{8}C/B1/B8/B4/B5/E5/E1,,3,4,5>2[32:3],
6,7,8<5[32:3],1,2,3>8[32:3],7,6,5>2[32:3],6,7,8-5[32:3],1,2,3-8[32:3],4,5,6-3[32:3],7,8,1-6[32:3],2,3,4,,
{32},,2h[16:3]/6h[16:2],,,,,,,,3,4,5,6,2,,,,,,,3h[32:11],,,,,7h[16:3],,,,,,,,6,5,4,3,7,,,,,,,,,,1h[8:2]/3,,,,4,,,,5,,,,8h[4:1]/6,,,,5,,,,4,,,,
{24}2,1,8,7,6,5,4,3b/7b,8,1,2,3,4,5b/1b,2,3,4,5,6,7bw3b[8:24]/3b,,,,,
{8},,,,,,,,,,,,,,,,,,,,,,,,,,,
{24},1bs5b[8:1]/8bz4b[8:1],,,1b/8b,,,1b/8b,,
