&title=Tribal Trial
&artist=Yooh
&first=0
&des=おにねこ
&wholebpm=165
&lv_5=14
&inote_5=(165)
{1},,
{16}45,,3,24,,6,75,,8v5[8:1]/4v1[8:1],,,,48,,,,
{8}2bpp7[8:11]/6bpp3[8:11],,,,,,,,,,,,,,,6/2pp6[8:7],4/8h[8:12],,,,,,,,,,,,
{24}7,6,5,4,3,2,1,8,7,6,5,4,
{8}
3,3pp4[16:5],,7h[8:1],,8h[8:4],,,6,6qq5[16:5],,2h[8:1],,1h[8:3],,4,
4,3pp4[16:5],,7h[8:1],,8h[8:4],,,
{16}6,5,4,7,6,5,1h[8:1],,
{24}2,3,4,5,6,7,8,1,2,3,4,5,
{16}6/1b,,6,6,5,,7,,5,6,6,,5>2[8:1],,,,5,,6,6,5,,7,,5,8,8,,5-8[8:1],,,,54,,
3,3,4,,2,,4,1,1,,4,,3h[8:1],,6,5,7,3,4,2,6h[8:1],,
{24}5,4,3,2,1,8-4[8:1],
6,5,4,3,2,1,
{16}
8,,3,3,5,,1,,5,8,8,,5>2[8:1],,6h[8:1],,5,,6,6,5,,8,,5,1,1,,5-1[8:1],,,,54,,
3,3,8-4[8:1],,2,,8,1,1,,7,,7h[8:1],,
2,4,3,7,5,6,2h[8:1],,7,5,6,2,4,3,7h[8:1],,
{8}1p2[16:9],,5h[8:1],,6h[16:2],,7h[16:2],,
{16}8h[16:2]/1,,,,1h[16:2]/2,,,,3/2h[16:2],,,,4/3h[8:2],,,,
{16}5,5,2h[8:1],,4,4,1h[8:1],,3,1,4,2,6v4[8:1],4,7,5,6z2[16:8],,,,1,,,,1,,,,1,,,,
1b/5b,,6,5,74,6,5,,4/7,,3,3,4,,2,2,4,,
3,4,25,3,4,,5/2,,6,6,5,,7,7,8,,
6,5,74,6,5,,4/7,,3,3,8<5[16:2],,,,
8>3[8:1],2,2,,8,5,5,,7,7,5,5,4,4,2h[8:1],,
8,,3,4,25,3,4,,6/1,,7,7,5,,8,8,5,,
6,5,74,6,5,,3/8,,2,2,4,,1,1,8,,
3,4,25,3,4,,6/1,,7,7,8<2[16:5],,,,3h[8:4],,,,,,,,8h[8:2],,,,5pp6[8:2],4,3,2,5,,
,,3,3,4,,1h[8:1],,4,4,1-5[8:1],,6,6,1,,
7,7,4,5,2,,8h[8:1],,5,5,8-4[8:1],,3,3,8,,
2,2,5,4,7,,1h[8:1],,4,4,1>4[8:1],,,,
1<6[8:1],7,7,,1,4,4,,3,3,4,4,5,5,6,6,2h[8:1],,
8,8,4,6,2,,8<6[8:1],,5,5,8-4[8:1],,3,3,8,,
1,1,5,3,7,,1h[8:1],,3,4,5p2[8:4],6,7,8,1h[8:8],,,,,,,,,,,,,,,,
5,,,,4,,3-7[8:1],,4-8[8:1],,,,,,,,
{8}
1b/6b,7,2h[8:2],,4h[8:2],3h[8:2],,1h[8:2],2h[8:2],,4pp6[16:5],3h[8:7],,,,,
6,7,8h[8:2],,5h[8:2],6h[8:2],,8h[8:2],7h[8:2],,5qq3[16:5],6h[8:5],,,,,
1-5[8:19],,8,,7,,6,,5,,4,,3,,2,,1,,8,,7,,6h[8:2],,
{16}5,6,3h[16:3],4,,4,3,5-8[32:5],4-1[32:3],6,5,,,,,,
2b/7b,,,,
4,5,5,5,4,5,5,5,4,5,5,5,4,5,5,,4,6,6,,4,5,5,,4,6,6,,4,5,,3,4,,3,,4,5,,3,4,,3,,
4,,3,3,4,,2,2,4,3,5,4,6v1[32:4]*-4[32:3],,,,6b,,,,
{24}3,4,5,6,,,6,5,4,3,,,3,4,5,6,,,
{16}
7,2,6,2,
5,2,4,2,
6,3,6,4,
6,5,6,,
3,5,4,4,
6,4,4,,
6,4,5,5,
3,5,5,,
{12}2,4,3,7,5,6,5z1[32:5]/4s8[32:5],,,,,,
{8}
2-4[8:1],2,5-1[8:1],5,2-5[8:1],2,6-1[8:1],6,2-6[8:1],2,7-1[8:1],7,3-7[8:1],3,8-5[8:1],8,
3-1[8:1],3,8-4[8:1],8,3-8[8:1],3,7-4[8:1],7,3-7[8:1],3,6-4[8:1],6,2-6[8:1],2,5,5h[8:1],
{16}1,5,1,5,3,5,3,5,3,7,3,7,5,7,5,7,
5,8,5,1,5,2,5,3,
{32}5,4,3,2,1,8,7,6,5p2[8:6],4,3,2,1,8,7,6,
{8},,,,,,5,5,3-7[8:1],2,5s1[32:6],6,2-6[8:1],,2b,,
{16}
7bV58[16:3]/3b,,,8-4[16:2],7,,4,,3-7[8:1],,2-8[8:1],,3,,2,,
6V85[16:3],,,5-1[16:2],6,,1,,2-5[8:1],,3,4,2,,6,6,
1V38[16:3],,,8-4[16:2],1,,4,,5-1[8:1],,6-8[8:1],,5,,6,,
2>5[8:1],,4,4,2<7[8:1],,8,8,2-6[8:1],,5,5,2,,7,7,
1qq8[16:3],,,8>3[8:1],1,,4,,5p1[8:1],,6pp6[16:3],,5,,6,,
2>5[16:2],,,4,2,,6,,7v4[8:1],8,,8,7,,3,3,
5qq4[16:3],,,4<7[8:1],5,,8,,1p4[8:1],,2<7[16:2],,1,,2,,
5h[128:31],,8,1,26,37,48,51,6/2,,4,5,2b/7b,,,,
2-6[16:2]/6,,,8V61[16:3],2,,8,,3V15[16:3],,4,,5-2[16:2],,6,,
7-3[16:2],,,1V38[16:3],7,,1,,5,,6,6,5,5,4,4,
3-7[16:2],,,5V74[16:3],3,,5,,2V48[16:3],,1,,8,,7,,
6<1[8:1],,8,8,6q2[8:1],,2,2,6>3[8:1],,4,4,6,,,,
{24}
2,3,4,1,2,3,
7,6,5,8,7,6,
1v4[8:1],2,3,5,6,7,
1b,,,,,,
7,6,5,8,7,6,
2,3,4,1,2,3,
8p4[8:1],7,6,4,3,2,
8b,,,,,,
{32}1,2,3,,6h[8:1],,,,2,3,4,,7h[8:1],,,,
3,4,5,6,8,7,6,5,43,2,1,8,5,6,7,8,
{16}12,,6,8,,3,1,,4/8w4[8:1],,,,8b,,,,2b/6b,,,,
