&title=Blood Castle - Darkist
&artist=M2U
&first=0
&des=亲爱三奶奶
&des_5=
&lv_5=14
&inote_5=(160){4},,,,,,,,{1}8z4[8:3]/4>8[8:3],
8v6[8:3]/4v2[8:3],
6q3[8:3]/2q7[8:3],
7<2[8:3]/3>6[8:3],
6<1[8:3]/2q5[8:3],
5p1[8:3]/1p5[8:3],
{2}5-8[8:1]/1v4[8:1],8<5[8:1]/4>1[8:1],
5v7[8:1]/1v3[8:1],3<6[8:1]/7>2[8:1],
{8}1h[8:1],5,8h[8:1],4,7h[8:1],3,6h[8:1],2-4[8:1],
5h[8:1],2,5h[8:1],4-8[8:1],6h[8:1],4,6h[8:1],8b,
8h[8:1],6,1h[8:1],5,2h[8:1],4,3h[8:1],5v7[8:1],
4h[8:1],5,4h[8:1],7v1[8:1],3h[8:1],7,3h[8:1],1b,
8/2,7,6/1,2,7/3,6,5/2,3,
6/4,5,6/2,3,7/4,6,2/5,3,
6,5/7,3,2/4,5,4/6,2,1/3,
7,6/8,4,3/5,6,7/5,8,6z2[4:3]/2>2[2:3],
,,,,,,,,,,,,,,,,2h[4:1]/6<1[4:1],
{16},,,,2,3,4,5,6,7,8,1,2,3,
{4}8h[8:1]/4>1[4:1],{16}4/8,7,6,5,{4}4<7[4:1],{16}4/8,1,2,3,
{4}4h[4:1],{8}6b,{16}4,3,2,1,8,7,6,5,4,3,
{4}2q4[4:1],{16}2/5,6,7,8,{4}1h[4:1],{16}5,4,3,2,
{8}1/8h[8:3],,,1b,{16}7,6,5,4,1,2,3,4,
8,7,6,5,8,1,2,3,5,6,3,2,6,7,2,1h[16:7],
{4}8b,{8}8-4[8:1],7,{4}8/2-5[8:1],7-3[8:1],
4b,{8}6h[8:1],{16}5,6,{8}3h[8:1],{16}4,3,{8}6h[8:1],{16}5,6,
{8}4/3h[8:3],5,6,7,4/8h[8:3],3,2,1,
{16}8,2,8,2,8,6,8,6,8-4[8:1],7,6,5,{4}4/8b,
{16}4,6,4,6,4,2,4,2,4-8[8:1],3,2,1,{4}8/4b,
{16}8,1,8,1,7,2,7,2,6,3,6,3,{4}5b/4b,
{8}6-3[8:1],7,8/6,1,2-7[8:1],3,4/2,5,
{16}6,4,6,4,5,3,5,3,6-1[8:1],4,5,3,{4}6b,
{16}3,5,3,5,4,6,4,6,3-8[8:1],5,4,6,{4}3b,
7h[8:1]/1h[8:1],6h[8:1]/2h[8:1],{16}5,3,5,4,5b,4,3,2,
{8}1h[16:1]/8h[16:1],1h[16:1]/8h[16:1],1h[16:1]/8h[16:1],8h[16:1]/7h[16:1],1h[16:1]/8h[16:1],1h[16:1]/8h[16:1],1h[16:1]/2h[16:1],8h[16:1]/1h[16:1],
{4}8h[8:1]/1h[4:1],{8}8-3[8:1],1,{2}8/1-5[8:1],
{8}5h[16:1]/4h[16:1],5h[16:1]/4h[16:1],5h[16:1]/4h[16:1],4h[16:1]/3h[16:1],5h[16:1]/4h[16:1],5h[16:1]/4h[16:1],5h[16:1]/6h[16:1],4h[16:1]/5h[16:1],
{4}4h[8:1]/5h[4:1],{8}4-7[8:1],5-1[8:1],{2}4>8[8:1],
{12}7,5,7,2,4,2,6,4,6,3,5,3,
8,7,6,2,3,4,7,6,5,3,4,5,
{4}7h[6:1]/6h[12:5],{12}7,8,1,2,3,4,5/3,6/2,7/1,
{32}8h[4:3],{4},,,{32}7/1,6/2,5/3,{8}4b,
8,{16}4,6,{8}1,{16}5,3,{8}8,{16}4,6,{8}1>4[8:1],{16}4,4,
{8}1-5[8:1],{16}5,5,{8}1-6[8:1],{16}6,6,{8}1-4[8:1],{16}4,4,{4}1b,
{8}2,{16}5,3,{8}7,{16}2,6,{8}4,{16}7,3,{8}5-3[8:1],{16}3,3,
{8}5-8[8:1],{16}8,8,{8}5-1[8:1],{16}1,1,{8}5<8[8:1],{16}8,8,{4}5b,
{8}3/7h[8:1],4,6/3h[8:1],5,2/4h[8:1],1,5/8h[8:1],6,
1/7h[8:1],2,6/3h[8:1],5,4/6h[8:1],3,7/4h[8:1],8,
3/5h[8:1],2,6/4h[8:1],7,3/5h[8:1],1,6/4h[8:1],8,
8/1,6/4,2/7,3/5,1/6,4/8,{16}5b/2b,6/3,4/7,8/5,
{2}6-3[8:1]/1-6[8:1],4<7[8:1]/1>4[8:1],
{4}8h[8:3],{16}2,3,4,5,{2}6b/8-4[8:1],
3h[4:1]/4v7[8:1],{8}7,{16}3,5,{8}1,{16}6,4,
{8}8,{16}6h[8:3],5,4,3,2,1,{4}8b,6-8[8:1],
{16}6/2-5[8:1],,,2,7p3[8:1],,,7,1p4[8:1],,,1,6-2[8:1],,,6,
{4}1h[2:1],{16}3,4,5,6,{8}7b,{16},,,,4,3,
2h[8:1]/8h[8:1],,,6h[8:1]/4h[8:1],,,{8}7h[16:1]/1h[16:1],{4}7b/1b,5h[8:1]/3h[8:5],
{8}5,5,5,5,6/3,7/3,3/8,{16}3/1v3[8:1],8,
{8}7,{16}8-4[8:1],7,{8}6,{16}7,6,5,6,7,8,{4}1/2-5[8:1],
{8}2/1,{16}8,7,{8}6p5[4:1],{16}1,2,{8}3,{16}2,3,{4}4b,
{8}1h[8:1],{16}8,7,{8}6/1h[8:1],{16}7,6,{8}5/1h[8:1],{16}6,5,{8}4/2h[8:1],{16}5,4,
{4}2h[8:1]/3h[8:1],{16}3,2/4,1/5,8/6,{8}7b,{16},,,,6/8v6[8:1],1,
{8}2,{16}1-5[8:1],2,{8}3,{16}2,3,4,3,2,1,{4}8/7-4[8:1],
7/8h[8:1],{16}8v6[8:1]/4v2[8:1],5/1,6/2,7/3,{8}4b/8b,{16},,,,5,6,
{8}7b,{16}3,4,3,4,2,5,{8}1b,{16}6,5,6,5,7,4,
{8}8b,{16}1,8,2,7,3,6,4,5,3,7,1,5,3,7,
1,5,4,8,2,6,1,5,3,7,2,6,4-8[8:9],8,2,6,
{1}4b,
E
