&title=Start To The End
&artist=LucaProject & Xeudo Code
&first=0
&des=AClrt_
&lv_5=14
&inote_5=(177)
{8},,,,,,,,3>5[4:7],,,,,,,,,,,,,,,,3V17^5[4:7],,,,,,,,,,,,,1,,2,3^1-7^5[4:7],,
,,,,,,,,,,,,,,3,4,5,6,4,5,6,7,3,4,5,2,,
{16}6,,,4,,,8x-4[4:7],,,,,,,,,,,,,,,,
{8},,,,,,,,2,5v6[4:1],4,5,E3,,2,3,5,3,4v3[4:1],5,
{16}4x,,,,6h[4:1],,,,3,,5,,4,,6,5,6,,4,,3,,5h[8:1],,4v5[4:1],,5,,4x,,,,
6,,6,,4/5pp1[2:2],,,,,,3,,,,,,3,,,,,,2<5[4:2],,,,,,B4/B3,,,,3h[8:3],,,,,,4,,
3qq7[4:3],,,,4,,,,,,5,,,,,,B6/B5,,,,6,,4,5,3,,2,,4,,3,,5,,4,6,3h[4:1],,,,
5,3,6,,2,,7,,1x/8x,,2,,3x/7v4[8:3],,,,3,,4q1[4:2],,,,,,3h[4:1],,,,,,,,
8-4[8:1],,2,,8x,,1,,1,,5,2,6,,3,,4,,5,,3,,4,,6qq1[4:2],,,,,,3,,,,2,,B3/E3,,
,,8x,,3,,6,,2x,,5,,5,,3x,,7,,4,,5x,,4/6,,37,,C/B3/B7,,,,,,
{16}8,7,6,5,1,2,3/6x,,4,5,3,,3x/4<8[4:1],,,,4,,2,,3,4,1x/5,6,7,8,1,2,3,4,
8x,7,6/1x,5,4/2xv5[8:1],,3x/5p8[8:1],,,,,,7,,6-3[8:1],,,,6x/8,,1p4[8:1],,,,
4v1[8:1],,5,,,,7^4[8:1],,,,7,,2<5[8:5],,3,,4h[4:1]/2,,,,,,5>1[3:2],,,,,,B8,B7,
,,,,6,,5,,4,,1,,,3,6h[8:1],,2,,3/7>5[5:2],,,,3h[2:1],,,,,,,,6x-1[8:1],,3,,
2q5[3:1],,,,,,,,,,7b^4[8:1],,,7,4,,3x^8q4[4:2],,,,4,,,,5,,6,,6q8[4:2],,,,
5,,,,4,,3-5p1[6:2],,,,3,,7qq8[4:2],,,,7,,2,,3,,4-1[8:1],,,,4,,7,,1x,,5,,2,3,
4/6x,7,8x-4[8:1],,,,8/5x^2[8:1],,,,7x,6x,5xV74[4:2],,2x,,,,3,,,,4-8[4:1],,
3-1[8:1],,,,3,,,,7,2,,2,6,,6/4V25[4:1],,,,5,,6,,7^2[4:1],,,,
2p6^3[8:3],,,,4,,3qq8[4:4],,2,,,,,,,,,,,,,,,,,,Cf/B3/E3,,,,7h[4:1],,,,
5pp8[8:6],,4,,,,3,,2,,1,,8<3[8:6],,,,B3/B4,,,,,,,,
3q1[8:2],,,,1<4[4:2],,2,,,,3,,4q5[4:2],,3,,,,,,2-4[8:1],,,,2,,,,6,,7,,
7h[8:3]/4,,,,,,1h[8:3],,,,3,4,5pp1[4:2],,,,1,,2,,3-6[8:1],,,,3x,,,,8,7,6,5,
4/1,,2,,3,,48,,7,,6,,51,,2,,36,,7,,4-1[8:1]/8^5[8:1],,,,4/8-3[8:1],,,,
8,,5,,6pp5[4:3]/2,,,,4-1[8:1],,,,4,,,,,,,,1,,,,2-5[8:1]/6,,7,,2,,8<4[8:3],,,,
2,3,4>8[8:3],,,,,,,,5h[4:1],,,,7xp4[4:2],,,,4,,3,,,,3,,2h[4:1],3x,,1,8,7,6,5,
4/2,,1-5[8:1],,7,,6h[8:1],,,,4-8[8:1],,3,,2h[8:1],,,,7,,6/2qq5[4:2],,5,,2x,,,,
5<3[4:3],,,,4h[4:2],,,,,,,,,,,,5qq1[4:2],,,,6h[4:2],,,,,,,,,,,,7qq1[4:3],,,,
3/7,,,,,,,,,,,,,,
4h[8:1],,,,,,,,,,8,,,,,,3h[8:1],,7,,,,,,,,,,,,6^3q8[4:4],,2h[8:1],,,,,,,,,,,,,,
,,3h[8:1],,,,3,,4,,8h[8:3],,,,,,,,4,,7qq1[4:3],,,,,,,,,,,,,,3,,
4^1^6[1:1],,,,,,,,,,,,,,5,,6pp3[4:3],,,,,,,,,,,,,,5,,5^8[4:1],,,,
,,,,1,,,,3,,4,,8/4^1[4:1],,,,7,,,,6,,,,51,,,,26,,,,
3,7,3,7,4,8,4,8,5p4>6[4:4],1,5,1,Cf,,,,,,,,,,,,,,,,
5,,5,,8,,6,,1,,7,,28,,2,,34,,2-5[8:1],,5-1[8:1],,,,6-2[8:1],,,,6x,,1,,
1^6[8:1],,,,2,,3,,4p8[8:1],,,,5,,,,1,,6,,2,,7,,8/3,,4,,38,72,61,,5,,1,,5x/2,,5,,
5x/3,,5,,5x/4,,4,,4/6x,7,8,1,2,3,4,5,
{32}6/3x,2,1,8,7,6,5,4,3,2,1,8,7,6,5,4,3bq5<2[2:3]/C,,,,,,,,
{8},,,,,,,,,,,,
{16}4,5,6,7,8x/3b,,,1b/6x,,,2x/4b,,,5x/7b,,,6/8x,,1/7x,,
2x/8,3,4,1x,8,7,3x,4,5,8x,7,6,C,,1,,
1-5[8:1]/5x,26,37,48,1b/5x-8-3[3:1],,,,,,4x,,3x^8[8:1],,,,
3x/4x,5,6,7x,6,5,4,3,2/7x,6,5,4,1x/3,8,7,6,
5x/8,4x/7,3x/6x,2x/5x,1x/4xb-7V51[4:1],,,4x,1,,2,,3b,,
3,8,2-5^3-8[8:3],,7,,2/6,,6,,7,,6,,51,,5h[8:1]/2,,3,4,2,,
1h[16:1]/7h[16:1],,1h[16:1]/7h[16:1],,2,3,4,6,5,7,3,4,2h[8:1],,,2,1x-5[8:1],,18,,
7h[8:1],,,7,8,,6V48[4:1],,4,,3,,2h[16:1],,2h[16:1],,7,6,5,4,
3/1x,,1,,2,8,3,7,2,8,3,7,2,8,3,7,2-4[8:1],,6,,2x/5x,E6,B6,B7,E8,4,3,2,
1x/7b,6,5,4,C,,B2/B3,,6b,4,7,3,6,4,7,3,6,4,7,3,6,4,5,3,4-8[8:1],,,,
4b/7x-2[8:1],,,,3x-6[8:1]/7b,,,,3b/8xp5[4:2]*q3[4:2],,,,8b,,,,,,,,,,,,
26,,45,,37,,6,4,5,,53,,3,4,2,,25,,25,,16,,2,,38,,7,,16,,2,,18,27,36,,
{16}4,5,4,5,3,6,3,6,2/7x,,,,
3/8xqq1>3[4:3],,,,4/8x,,,,3-6[8:1]b,,,,3qq7[4:3],,,,,,,,5,5,,,4,,,,3b-1[8:1],,,,
7^4q1[4:2],,,,7,,,,1p8<4[4:3],,2,,3b,,,,,,,,4q1[4:1],,,,3,,3,,
2b,3,4,5,6,7,8,1,2/6bh[4:1],,,,4,,7h[8:1],,2h[4:1],,,,3^8pp2[4:2],,,,4,,5,,
6-3[8:1]b,,,,6b,,,,1h[4:1],,,,8^5[4:1],,,,5pp1[5:3],,4,,3b,,,,,,,,
2,3,4,5,1x/6,8,7,6,5/2x,3,4,5,6,7,8,1,
{8}2b/6b<4[4:7],,,,,,,,,,,,,,,,6V82^4[4:7],,,,,,,,,,,,,
8,,7,6h[4:1],,3h[4:1],,
{16}4h[16:5],,,,,5h[16:6],,,,,,6h[16:6],,,,,,3h[16:11],,,,,,,,,,,6,5,{12}4,
{8}3bq6[4:7],
,,,,,,,,,,,,,,,,{16},,,{48},,,,,,,,,,,
{8},,E
