&title=混乱-Confusion
&artist=回廊音乐
&first=0
&des=混乱-Cactus
&des_5=
&clock_count=4
&lv_5=14+
&inote_5=(180){4},{8},,,,,,,6,
5,4h[4:1],{2}3h[4:1],
6h[2:1]/5h[4:1],{16}2,1,8,7,6,5,4,3h[16:5],
,,7,6,{8}5h[4:1],{16}2,3,{8}4h[8:1],{16}6,7,8/1,2,{8}3h[16:3],
7h[16:1],6h[16:1]/2h[16:1],7h[16:1]/3h[16:1],4h[16:1]/8h[16:1],{2}7h[4:1]/3h[8:1],
{8}2,3,4,5,{4}6/8,4/3,
2/7,{8}4h[8:1],6h[8:1],3h[8:1],7h[8:1],2h[8:1],8,
{16}7b/3h[8:1],,,5b/3h[8:1],,,{8}1b/3h[8:1],{16},7b/3h[8:1],,,{8}5b/3,{16}8,7,
2b/6h[8:1],,,4b/6h[8:1],,,{8}8b/6h[8:1],{16},2b/6h[8:1],,,{8}7h[16:1]/3h[16:1],3/7,
{16}4/6h[16:3],,,5,{8}7,5/3h[16:3],{16},4,{8}2,8/1,7/2,
{16}6/3h[16:3],,,4,{8}2,3/6h[16:3],{16},5,{8}7,8/4,6/2,
{16}3/5h[16:3],,,4,{8}7,6/4h[16:3],{16},5,{8}2,7/3,1/5,
{16}2/6h[16:3],,,4,{8}8,7/3h[16:3],{16},5,{8}1,{16}7,6,5,4,
{8}1h[8:1],{16}3,2h[8:1],,4,{8}3h[8:1],{16}5,4h[8:1],,6,{8}5,5,
8h[8:1],{16}6,7h[8:1],,5,{8}6h[8:1],{16}4,5h[8:1],,3,{8}4,4,
8h[8:1],{16}3,1h[8:1],,4,{8}2h[8:1],{16}5,3h[8:1],,6,{8}4,4,
1h[8:1],{16}6,8h[8:1],,5,{8}7h[8:1],{16}4,6h[8:1],,3,1,8,7,6,
{8}5/1,{16}3,4,{8}3,2/5,{16}8,1,{8}8,{16}7,8,{8}7,
2/6,{16}5,4,{8}5,7/3,{16}5,6,{8}5,{16}4,5,{8}4,
8/3,{16}2,1,{8}2,1/6,{16}4,3,{8}4,{16}5,4,{8}5,
6/3,{16}7,8,{8}7,2/6,{16}1,2,3,4,8,7,6,5,
{8}4/3,4/3,{24},,,,,,,,,1,2,3,{8}4/5,{24}8,7,6,
{8}5/4,4/5,{24},,,,,,,,,7,6,5,{8}4/3h[8:1],{24}8,7,6,
{16}4,5,4,6,5,6,3,4,3,5,4,5,3,4,2,5,
1,6h[8:1],{32}2b,3,{16}4,7h[8:1],{32}3b,4,{16}5,8h[16:1],4,6,4,6,3,5,3,5,
{4}1h[8:1],2h[8:1]/8h[8:1],7b-4[8:1]/3bv8[8:1],E3/B3/B7/E7,
{8}2/6<4[4:3],,,4h[4:1],,,{4}5h[2:1],
{8},,6h[2:1],{16}B4,B3,{4}E3,1,
{8}7/3>5[4:3],,,5h[4:1],,,{4}4h[2:1],
{8},,3h[2:1],{16}E3,B3,{4}B4,5,
1/7-5[8:1],{8}7>2[16:3],{16}E4,E5,{4}E6,{16}3,4,5,6,
{8}B1/E1,B3/E3,B5/E5,B7/E7,4h[4:1],{16}3,2,1-4[8:1],8,7,6,
{4}1/5-8[8:1],5/1,{8}6/4,5,5/3,4,
{16}6/4,7/3,{8}2/8h[8:3],{16}1,2,3,4,{2}5w1[8:1],
{8}4/5h[4:1],,,4/6h[4:1],{4}D3/E3,{8}7h[8:3],4,
,4,8h[8:1],{16}2,3,{4}4h[8:1]/D7/E7,5h[8:1],
{8}4/6h[4:1],,,4/8h[4:1],{4}E3/D3,{8}6h[8:3],4,
,4,8h[8:1],{16}3,4,{4}D7/E7/5-1[8:1],5/D7/E7,
4/3h[4:1],{8}5,{16}4,5,{4}6h[8:1]/D3/E3,{16}4,3,2,1,
{8}8h[8:1],6h[8:1],4h[8:1],2h[8:1],D7/E7,{16}8,1,2,3,4,5,
{4}8/6-2[8:1],6/4,{8}4/E3/D3,6,4/8,2,
{16}3/7,2/6,{8}5/1h[8:3],{16}4,5,6,7,{4}8bw4[8:1],8b,
{16}1/6,,,8/5,,,{8}7/4,{16},6/3,,,5/2,,,4/1,
,,{8}3/8,{16},2/7,,,{8}3/5,3/5,4/6,6/4,
{16}3/7,,,8/4,,,{8}1/5,{16},6/2,,,3/7,,,8/4,
,,{8}1/5,{16},2/6,,,3,4,5,6,2,1,8,7,
6/1,,,7/2,,,{8}8/3,{16},1/4,,,2/5,,,3/6,
,,{8}4/7,{16},5/8,,,{8}6/4,4/6,3/5,5/3,
{16}6/2,,,1/5,,,{8}8/4,{16},3/7,,,6/2,,,1/5,
,,{8}8/4,{16},7/3,,,2,3,4,5,6,5,4,3,
{8}7b/2b,{16}1-3[8:1],8,{8}2,6/1,{16}7-1[8:1],8,{8}6,7/4,{16}5-7[8:1],6,
{8}4,5/2,{16}3,4,{8}2,3/1,6/4,8/7,5/3,
6b/2b,{16}3-8[8:1],5,{8}2,3/7,{16}6-1[8:1],2,{8}7,6/4,{16}2-5[8:1],7,
{8}3,2/6,{16}7,1,{8}6h[8:1],{16}A4,A3,A2,A1,A8,A7,A6,A5,
{8}8b/A4,{16}2>5[8:1],1,{8}3,2/7,{16}8>3[8:1],1,{8}7,8/5,{16}6<1[8:1],5,
{8}7,6/3,{16}4,5,{8}3,8/1,7/5,4/2,8/1,
6b/3b,{16}4-8[8:1],5,{8}4,4/6,{16}6-2[8:1],7,{8}6,6/3,{16}3-7[8:1],1,
{8}3,3/5,{16}6,8,{8}5h[8:1],{32}1,2,3,4,5,6,7,8,E5,E4,E3,E2,E1,E8,E7,E6,
{8}E5,4/5,5/4,4/5,5/4,4/5,5/4,4/5,
4b,3/7,2/6,1/5,8/4-1[8:1],7,6,5,
4/8-5[8:1],3,2,1,{16}8,4,7,3,6,2,5,1,
{8}4,{16}3,5h[4:1],{8}2>5[8:1],1,8/2-6[8:1],7,6/2,5,
{16}4,8,3,7,2,6,1,5,{8}8,7/1,{4}6/2h[4:1],
{8}1b-4[8:1],8,1/7-2[8:1],6,7/5-8[8:1],4,5/3-6[8:1],2,
{4}3/1-5[8:1],{8}1/4-2[8:1],4,8-6[8:1],8,5w1[8:1],5,
{4}5,{8}7/3,8/4,5/1,8/4,7/3,6/2,
5h/1h,1h/5h,3h/7h,5h[8:1]/1h[8:1],,4b/8b,{4}6b/2b,
{8}5b,6/2,7/3,8/4,1/5<8[8:1],2,3,4,
5/1>4[8:1],6,7,8,{16}1b,5,2b,6,3b,7,4b,8h[16:5],
,,2b,3,{8}4h[4:1],{24}8b,7,6,{8}5h[8:1],{24}3b,2,1,8/7b,6,5,4h[16:3],,,{8}8bh[16:1],
5h[16:1]/1bh[16:1],6h[16:1]/2bh[16:1],7h[16:1]/3bh[16:1],{48}8h[8:1]/4bh[8:3],,,,,,,D8,A7,D7,A6,D6,5xh[4:1],,,,,,,D4,A3,D3,A2,D2,
{8}1bx>4[32:3],8,7/1,6,5b<8[32:3],{32}1,2,3,4,{8}5b,{32}1,2,3,4,
{8}5/1b,5b/1h[4:3],,4h[4:1],{64},,,,,,,,,D5,A5,D6,A6,D7,A7,D8,{4}A8f,
{32}1b/7h[8:1],2,3,4,,,1b/7h[8:1],2,3,4,,,2b/8h[8:1],3,4,5,,,2b/8h[8:1],3,4,5,,,3b/1h[8:1],4,5,6,{24}5x,4x,3x,
{32}8b/2xh[8:1],7,6,5,,,8b/2h[8:1],7,6,5,,,7b/1h[8:1],6,5,4,,,7b/1h[8:1],6,5,4,,,6b/8h[8:1],5,4,3,,,,,{8}7x/2x>7[8:13],
,,8h[4:1],,,{4}1h[2:1],
,,{2}2h[4:1],
{8}2/6,3,4,5h[8:9],,E7,{4}B6,
,,4,5,
{8}6h[4:3]/4h[4:1],,,3h[4:1],,,{4}2,
6h[8:1]/3h[4:3],4,2h[8:1],8,
{8}5/2,6,7,1/8<1[8:9],,B2,{4}E3,
,8,{2}6h[4:1],
{8}7/3<6[4:5],,,2h[4:1],,,{4}1h[2:1],
,,8,7,
{8}6/2,5,4,8h[8:9],,B4,{4}E5,
,,1,8,
{8}3h[4:3]/6h[4:1],,,5h[4:1],,,{4}6,
{8}7/3,4,{4}5h[8:1],{8}6/2,5,{4}4h[8:1],
{8}3/7,4,5,1h[8:13],,B8,{4}E1,
{8},,,7,,,{4}6,
{1}5h[1:1],
E5,
E
