&title=仮装狂騒曲
&artist=FAKE TYPE feat:月村手毬(CV:小鹿奈绪) 篠泽广(CV:川村玲奈) 仓本千奈(CV:伊藤舞音)
&first=-0.574
&des=布衣
&lv_5=13
&des_5=布衣
&inote_5=
(150){4},{8},,,,,,4/5,
5,{12}3,4,{24},6,{8}5,3,2,6,
7,{24}2,,8,{8}1,2,2,7,7,3,
5,{24}3,,3,{8}4,{24}5,,5,{8}4,6,3,7,
2,{24}8,,8,{8}2,3,4,{24}6,,6,{8}5,3,
2-5[8:1],2,7v4[8:1],7,1q5[8:1],1,8-4[8:1],8,
3-1[32:3],3,5-7[32:3],5,{2}8w4[32:3],
{8}5x-1[8:1]/3x-7[8:1],3/5,{4}3/5,{8}8qq6[8:1]/2pp4[8:1],8/2,{4}2/8,
4x<7[8:1]/3xV58[8:1],3/4,5x>2[8:1]/6xV41[8:1],6/5,
{8}3xh[8:1],{24}4,,2h[8:1],{48},,,,4,,,3,,,{24}6,{48},4h[48:5],,,,,{24}5,,6h[8:1],{48},,,,4,,,3,,,{24}5,
{16}4,5,3,6,{8}B4/B3,B5/B6,{4}C,8b,
{8}1h[8:1],{24}8,,7h[16:3],{48},,,,,,,8,,,{24}6,{48},1,,,7,,,2h[4:1],,,{24}8,{48},,,,,,,1,,,{24}2,
{16}1,8,2,7,{8}B1/B2,B8/B7,{4}C,1b,
{8}3,6,{16}E4,E6,B2,B7,{8}1,8,{16}E2,E8,B3,B6,
2,4,3,5,{8}4h[8:1],{16}E1,B8,B7,E7,E3,B3,B4,E5,,,{8}6,
6,{16}1b,1,,,{8}3,3,{16}8b,8,,,7,
5,6,4,5,3,4,3,{8}4,5,4b/5b,5/6,
4/6,{16}3,4,{8}3,{16}5,4,{8}6,B6/B3,B7/B2,1x/2x,
8/2,{16}7,8,{8}7,{16}1,8,{8}2,B7/B2,{4}B6/B3,
{8}4/5,{16}6,5,{8}6,4/5,{16}3,4,3,4,{8}3,4/5,
{16}4,3,2,1,5,6,7,8,{8}1/2,3,4/5,7b,
{12}4,4,{96},,,,,{32}6,,5,,6,,5,,7,,,,,{16}3,4,3,4,,1,
{32}1,,,5,,,{16}4,{8}4h[8:1],{16}3,3,,,{8}E5/E3,B6/B1,7x/8x,
7/8,B6,B5,2/1,2/1,B3,B4,{16}4x,6,
4,6,3,5,{8}3,2/6,1/7,B7/B6,B2/B3,4x/6x,
4/6,{16}6,4,5,3,{8}4,{16}2,4,3,5,{8}4,{16}6,5,
{8}6,4/5,{16}3,4,3,4,2,5,1,6h[16:5],{4}8,
{8}1<5[2:1],,,5,{4}5V31[2:1],{8}1,1,
1s5[2:1],,,5,5,B7/B8,{4}B7/B8,
{12}B5,4,4,B5,3,3,B5,2,2,B5,1,1,
B5,8,8,6x-4[12:1],8-2[12:1],6,{4}8,{32}5xh[4:1]`E2,B2,B3,E4,{96},,,,,,,,,,,,{12}B4,
5,5,B4,6,6,B4,7,7,B4,8,8,
B4,1,1,3x-5[12:1],1-7[12:1],3,{4}1,C,
{12}B5,4,4,B4,6,6,B6,2,2,B2,8,8,
B8,1,1,8-4[12:1],1-5[12:1],8,{4}1,{32}E6/E4,B6/B3,B7/B2,E8/E2,{8}8x/1xh[4:1],
,8h[8:1],7h[8:1],6h[8:1],5h[8:1],4h[8:1],3h[8:1],2-6[8:1],
,2,3,4,{4}5h[8:3],6h[8:1],
{16}3,3,,5,6,4,,8,1,7,,,{4}3-8[32:3]/4-7[32:3],
4/3,6-1[32:3]/5-2[32:3],5/6,5<1[16:3],
{8}1,2,3,4-1[8:1],,4/5,{4}6,
{8}7/1,5,8/2,4,1/7,5,8/2,1>3[32:3],
,1/5<8[32:3],6,4/5,,4,{4}6-1[32:3]/5-2[32:3],
5/6,3-8[32:3]/4-7[32:3],4/3,4>8[16:3],
{8}8,7,6,5h[4:1],,1,{4}1x>4[32:3]/5x<8[32:3],
5x-2[32:3]/1x-6[32:3],1x-5[8:1],5xpp5[16:3]*qq5[16:3],5x,
{8}3xh[8:1],{16}5,4,{8}6,3,7xh[8:1],{16}1,8,{8}2,3,
{4}5b/4b,,,6/4,
5/3,B6/B4,B8/B2,B5/B3,
{8}B7/B1,,,4,5,3,6,2,
{4}7,C,{8}E1,B7,B2,B5,
{4}B4,,,3/5,
6/4,B3/B5,B1/B7,B4/B6,
{8}B2/B8,,,5,4,6,3,7,
{4}2,C,{8}E1,B2,B7,B4,
5<4[2:3],,,3,{2}4,
{16}B8,,,B7,,,{8}6h[2:1],,,,,4>5[2:3],
,,6,{2}5,
{16}B1,,,B2,,,{8}3h[2:1],,,,,1>8[2:3],
,,7,{2}8,
{16}B4,,,B3,,,{8}2h[2:1],,,,,8<1[2:3],
,,2,{2}1,
{16}B5,,,B6,,,{8}7h[2:1],,,,,{4}8/1,
7/2,6/3,5<7b[32:3]/4q8[32:3],
4>2b[32:3]/5p1[32:3],5<7b[32:3]/4q8[32:3],4>2b[32:3]/5p1[32:3],5/4<8[16:3],
{8}1,2,3,4-1[8:1],,4/5,{4}6,
{8}7/1h[8:1],5,2/8h[8:1],4,7/1h[8:1],5,2/8h[8:1],1v4[32:3],
,1/5-8[32:3],6,3/5,,4,{4}5<7b[32:3]/4q8[32:3],
4>2b[32:3]/5p1[32:3],5<7b[32:3]/4q8[32:3],4>2b[32:3]/5p1[32:3],5/4<8[16:3],
{8}1,2,3,4h[4:1],,7,{4}8,
{32}4bx/8bx,3x/7x,{16}2x/6x,{32},,,,5bx/1bx,6x/2x,{16}7x/3x,{32},,,,4bx/8bx,3x/7x,{16}2x/6x,,,{4}7h[4:1]/3xh[8:3],
{16},,5,4,{8}6,3,7xh[8:1],{16}1,8,{8}2,3,
7b/2b,8,3/1,{16}2,8,1,7,,6/2,,7,{8}1,
8,7/1,1,2/8,{16}3,7,,3/6,,4,{8}5,
2/7,1,6/8,{16}7,1,8,2,,3/7,,2,{8}8<5[8:1],
1-5[8:1],8-4[8:1],1,8,2-4[16:1],1,7-5[32:3]/2-6[32:3],8,
{4}7b/2b,{8}4/3,{16}3,5,4,6,,7/3,,6,{8}4,
5,6/4,4,3/5,{16}2,6,,3,{4}8-4[8:1],
{32}4x<8[8:1],3x,2x,1x,,,,,8x-4b[8:1],1x,2x,3x,,,,,4x<8b[8:1],3x,2x,1x,,,,,8x,1x,2x,3x,,,,,{8}7/4,
{16}5,6,{8}4,3/5,4/2,{16}3,4,{4}1-4[32:3]*-3[32:3],
1<6[32:3],1w5[32:3],{2}1b,
E
