&title=breath of stella
&artist=『終のステラ』オープニング
&first=-0.01
&des=Tane
&lv_5=13+
&inote_5=(176){1},,
{8},,
{8}E7,,B5,,
B4,,E3,,
E7,,B5,,
B4,,B3,,
E7,,B5,,
B3,,E2,,
E7,,B5,,
C,,B3,,
E6,,C,,
B4,,E3,,
E6,,C,,
B4,,E3,,
,,,,
,,,,
18,18,18,18,
27,27,36,36,
{8},E2,B8,E7,
,E2,B8,E7,
,E6,B4,E3,
C,E2,B8,E7,
45,6,3,2,
1,7,2,6,
25,3,25,1-5[8:1],
,8,8,18,
,E8,B1,E3,
56,7,18,2,
,3,45,6,
78,6,45,3,
2,2,6,7,
{16}1,8,1,8,
1,,1,,{8}28,3,{16}6,5,6,,
{8}47,3,28,,
{8}1h[4:8],,,,
{32}E7,B6,B5,,{8},,,
,,,,
{32}E7,B6,B5,,{8},,,
7h[4:6],,,,
{32}E1,B8,B7,,{8},,,
,,,,
{8},56,7,5/6h[8:17],
,,,,
{32}E3,B3,B4,,{8},,,
,,,,
{32}E1,B8,B7,,{8},,,
2h[4:6],,,,
{32}E1,B1,B2,,{8},,,
,,,,
{8}4,24,,,
{8}3,4h[8:2],3,,
2-5[8:1],2,1,,
6,5h[8:2],6,,
7-4[8:1],7,8,,
2,4h[8:2],2,,
1-5[8:1],1,8,,
7,7,5,5,
56,7,56,7,
2,1,2h[8:2],,
4^7[8:1],3,4,,
7,8,7h[8:2],,
5^2[8:1],6,5,,
1,8,1h[8:1],,
4-8[8:1],3,4,2,
1,1,8,8,
27,36,{16}4,5,4,,
{8}35,,3/E6,,
3/B7,,3/A8,{16}3,4,
{8}3,3h[8:5]/5,,,
B6,,B8,,
74,,7/E4,,
7/B2,,7/A1,,
{16}47,,6,5,
6,,47,,
,,47,,
2,1,2,,
{8}2/1,,2/E1,,
2/B7,,2/E6,,
78,78,7,7,
12,12,18,,
1b/8b,,,,
45,,{16}1,8,1,,
{8}1-4[8:1]/8-5[8:1],,18,,
45,,{16}1,8,1,,
{8}2pp5[4:1]/8,,8,7,
6^1[8:1],,C/B4/B3,,
2pp5[4:1]/1,,1,8,
7^4[8:1],,C/B1/B2,,
1pp4[4:1]/8,,7,6,
5^8[8:1],,C/B2/B3,,
1pp4[4:1]/8,,6,7,
8^5[8:1],,C/B2/B3,,
1w5[8:1],,1,,
4/5-8[8:1],45,45,,
1w5[8:1],,1,,
5/4-1[8:1],54,54,,
1w5[8:1],,1,,
1w5[8:1],28,,,
45,6,45,2,
B8,B1,B7,B2,
{8}7qq4[4:1]/1,,1,2,
3^8[8:1],,C/B5/B6,,
7qq4[4:1]/8,,8,1,
2^5[8:1],,C/B8/B7,,
8qq5[4:1]/1,,2,3,
4^1[8:1],,C/B7/B6,,
8qq5[4:1]/1,,3,2,
1^4[8:1],,C/B7/B6,,
8w4[8:1],,8,,
5/4-7[8:1],54,34,,
8w4[8:1],,8,,
4/5-2[8:1],45,56,,
8w4[8:1],,8,,
8w4[8:1],71,,,
{16}4,5,4,5,
3,6,3,6,
B2,,B1,,
B8,,B7,,
{8}45,45,3,3h[8:1],
5,5h[8:1],4,4h[8:1],
6,6h[8:1],{16}E5,E4,E3,,
{8}1b,1,1,,
34,2,18,2h[4:1],
,8,71,2,
34,5,6,57,
57,6,57,,
{8}2pp5[4:1],8,2,7,
6^3[8:1],4,6,2,
2pp6[4:1]/1,,1,8,
7^4[8:1],,C/B1/B2,,
1pp4[4:1],8,1,6,
5^8[8:1],3,5,4,
5qq1[4:1]/8,,6,7,
8^5[8:1],,C/B2/B3,,
1-5[8:1],,12,,
4-7^8[8:1]/5,34,24,,
1w5[8:1],,1,,
5-2[8:1]/4,56,57,,
1w5[8:1],,1,,
1w5[8:1],28,,,
45,{16}8,1,7,2,6,3,
{8}E8,E2,E7,E3,
{8}7qq4[4:1],1,7,2,
3^6[8:1],5,3,7,
8qq4[4:1],1,8,1,
2^5[8:1],1,2,1,
8qq5[4:1],1,8,3,
4^1[8:1],6,4,5,
4pp7[4:1],1,4,2,
1^4[8:1],8,1,8,
8-4[8:1],7,86,,
5-2^1[8:1]/4,65,75,,
8w4[8:1],,8,,
4-7[8:1]/5,43,42,,
1-5[8:1],8,18,,
1-5[8:1],72,81,7,
3,3,45,45,
34,24,56,5b/7b,
{8}18,18,34,34,
{16}18,,3,4,
3,,18,,
{8}27,27,65,65,
{16}8b/1b,,6,5,
6,,81,,
{8}2b/7b,18,18,34,
{16}1b/8b,,3,4,
3,,18,,
{8}5b/6b,18,27,18,
{16}81,,6,5,
6,,81,,
{8}8-4[8:1],,18,,
34,5,68,1,
2-6[8:1],,12,,
47,3,12,8,
7-3[8:1],,78,,
25,6,47,8,
{16}18,,3,4,
3,,18,,
6,5,6,,
8,3,1,2q5[4:8],
{8},E2,E3,E4,
,E2,E3,E4,
,E2,E3,E4,
,,,,
7h[4:2],,,,
5h[4:2],,,,
4p1[4:3],,,,
,,,,
3h[4:2],,,,
4h[4:2],,,,
5h[4:2],,,,
6h[4:2],,,,
{16}7,,8,,
,1,,2,
,E7,,B8,
,,B1,,
E3,,,E6,
,C,,,
E4,,,E5,
,,Ch[4:6],,
,,,,
