&title=ステラ
&artist=じん;初音ミク;Leo/need
&first=0
&des=sakikeai
&lv_5=13+
&inote_5=(197)
{1},,
{16}3,,,,5h[8:3],,3h[8:3],,,,,,,,,,
{16}6,,,,4h[8:3],,6h[8:3],,,,,,,,,,
{16}4,,,,5h[8:3],,4h[8:3],,,,,,,,,,
{16}3V15[4:3]/6,,,,,,,,,,,,,,,,
{16}6,,,,4h[8:3],,6h[8:3],,,,,,,,,,
{16}3,,,,5h[8:3],,3h[8:3],,,,,,,,,,
{16}5,,,,4h[8:3],,5h[8:3],,,,,,,,,,
{16}6V84[4:3]/3,,,,,,,,,,,,,,,,
{16}3,,,,5h[8:3],,2h[8:3],,,,,,5,,,,
{16}35,,,,6h[8:3],,4h[8:3],,,,,,6,,,,
{16}46,,,,3,,5,,,,5,,2V83[4:3],,6V47[8:5],,
{16},,,,,,,,,,,,,,,,
{16}84,,,,7,,5,,,,5,,6,,,,15,,,,2,,4,,,,4,,3,,,,
{16}5<5b[4:11]*>5b[4:11],,,,,,,,,,,,,,,,,,,,,,,,,,,,,,,,,,,,,,,,,,,,,,,,
,,,,,,,,,,3,3,8b-4[8:1],,,,
18,,,,5,,37,,,,4,,4,,26,,,,5,,2-4[8:1],,2,,8-6[8:1],,8,,1-5[8:1],,1,,
7,,,,4,,62,,,,5,,5,,73,,,,4,,28,,7,,61,,2,,3-8[8:1]/5,,,,
43,,,,1,,37,,,,8,,8,,62,,,,1,,6-4[8:1],,6,,3-1[8:1],,3,,7,,7,,
2,,5,4,6,,28,,,,34,,34,,17,,,,2,,8-6[8:1],,8,,2-4[8:1],,2,,7,,,,
2-4[8:1]/6,,,,,,,,2-4[8:1]/6,,3,,,,,,7-5[8:1]/3,,,,,,,,7-5[8:1]/3,,6,,,,,,
1-5[8:1]/4,,,,,,,,1-5[8:1]/4,,2,,,,,,8-4[8:1],,,,2^7[8:1],,,,5-1[8:1],,,,2,,,,
8-6[8:1]/4,,,,3,,,,8-6[8:1]/4,,8,,3,,,,3-5[8:1]/7,,,,1,,,,3-5[8:1]/7,,3,,1,,,,
7-3[8:1]/4,,,,1,,,,7-3[8:1]/4,,7,,1,,,,
2^4[8:1],,2,,6^8[8:1],,6,,2,,2,,2,1,2,1,
2b-6[1:1],,,,8,,,,8,,,,8,,,,8,,,,8,,,,8,,,,8,,,,
8/4,,,,8,,,,8,,,,8,,,,8/3,,,,8,,,,8,,,,8-4[4:5],,,,
2,,,,2,,,,2,,,,2,,,,
2,,,,2,,,,2,,,,2,,,,
26,,,,2,,,,2,,,,2,,,,
7v4[4:2]/2s6[4:2],,,,,,,,,,,,,,,,
1b^3[4:2],,,,5,,,,6,,,,7,,,,
8^6[4:2],,,,4,,,,3,,,,2,,,,
1-4[4:2],,,,5,,,,6,,,,5,,,,
7-4[4:2],,,,3,,,,2,,,,3,,,,
5b^8[4:2],,,,1,,,,2,,,,3,,,,
4^1[4:2],,,,8,,,,7,,,,6,,,,
5b-8[8:1]/3,,,,5-2[8:1],,,,5-1[8:1],,,,5,,,,4,,7,5,7,,3,4,3,,6,5,6,,,,
1b^3[8:1],,,,,,5,,,,7V51[8:3],,7,,4-2[8:1],,,,,,,,8b,,,,6,,4,,5,,
2^8[8:1],,,,,,5-8[8:1]*qq5[4:1],,,,,,,,7^1[8:1],,,,,,,,4-1[8:1],,,,,,,,,,
7b-5[8:1],,,,7,,3,,,,2-4[8:1],,2,,7,,,,8-6[8:1],,8,,2,,,,1,,1V38[8:3],,1,,
4b,,,,6,,,,5,,,,6V47[8:3],,6b,,,,,,3,,,,1,,,,2,,,,{16}16,,2,,5,,63,,7,,4,,3b/5b,,,,4,6,5,6,3,6,5,6,2-6[8:1],,2,,,,,,
8b-4[8:1],,,,8/3-1[8:1],,,,7-3[8:1]/3,,,,87,,,,
1b^4[8:1],,,,7/1^6[8:1],,,,3/1,,,,25,,1,,1-5[8:1],,,,1/5,,,,6-1[8:1]/4-1[8:1],,,,64,,,,7-4[8:1],,,,7,,3,,2-5[8:1],,5,,62,,8,,
4b-8[8:1],,,,4/7-5[8:1],,,,2-6[8:1]/7,,,,24,,,,
8b-4[8:1],,,,8/5>7[16:5],,,,1,,,,,,,,5-8b[8:1],,,,58,,,,2-6[8:1]*-5[8:1],,,,2,,,,
8-4[8:1],,,,3,,2-5[8:1],,1,,8,,7^2[8:1],,6,,
5-3[8:1],,,,8,,,,5-7[8:1],,,,2,,2,,,,4-8b[8:1],,,,7,,6,,5,,1,,2,,3q4[2:1]/4<3[2:1],,,,,,,,,,,,,,,,
25,,,,3V14[4:1],,,,6h[4:1],,,,,,,,
57,,,,6V84[4:1],,,,3h[4:1],,,,,,,,
15,,,,3V16[4:1],,,,5h[4:1],,,,,,,,
8-5[8:1],,,,18,,3-7[8:1],,,,3>6[4:1]/4,,,,,,,,,,
45,,45,,45,,3,2,1,8,7,6,
4b/5b,,,,1-6[8:1],,1,,4-8[8:1],,4,,1,,,,
1b-6[8:1]/2b-5[8:1],,,,12,,,,78,,,,25,,2,,3b-5[8:1]*-7[8:1],,,,3b,,,,6b-1[8:1]/1b-4[8:1],,,,6b/1b,,,,7-3b[8:1],,,,73,,2,,1-5b[8:1],,5,,61,,8,,
4b^1[8:1],,,,7-4[8:1],,7,,8-3[8:1],,8,,6,,,,
4-1[8:1]/8-5[8:1],,,,48,,,,26,,,,4h[4:1]/1,,,,
{24}2b,1b,8b,7b,6b,5b,
{16}4b,,,,3b-8[8:1]/6b-1[8:1],,,,3b/6b,,,,2^5[8:1],,,,6,,7-4[8:1],,8,,1,,2^7[8:1],,3,,
4-8[8:1],,,,2,,,,4-8[8:1],,,,6,,6,,,,5q1b[8:1],,,,2,,3,,4,,8,,7,,6V48[2:1]/3V51[2:1],,,,,,,,,,,,,,,,27,,,,3-5[8:1],,,,6h[4:1],,,,,,1,8,2,,,,7<2[4:1]/3,,,,1h[4:1],,,,,,,,7,,,,2>7[4:1]/5,,,,8h[4:1],,,,,,,,2,,,,8-6[8:1]/4,,,,1h[4:1],,,,5-1[8:1],,5,,,,,,37,,4,,58,,7,,26,,3,4,3V16[4:1],,,,5,,5,,,,8,,1,,2,,8-6[8:1]/3,,,,2-4[8:1]/8,,,,12,,,,6V83b[4:1],,,,5bh[4:1],,,,,,1b-5[8:1]/4,,,,7-3[8:1]/1b,,,,7b/8w4[8:5],,,,,,,,,,,,,,,,,,
8b/2,,,,4,,6/2b,,,,5,,1,,7/3b,,,,4,,7^4[8:1],,7,,3^8[8:1],,3,,6,,6,,
1b,,7-4[8:1],3,7,3,7b,,,,1,,5,,3b/7,,,,8,,64,,3,,25,,6,,1-5[8:1],8,2,,
1b/7b,,,,8,,6b/2b,,,,1,,5,,3b/7b,,,,8,,2^5[8:1],,2,,6^1[8:1],,6,,3,,3,,
7,,4,5,3,,71,,,,6/5,,1b,,3b-6-4-1b[8:25]/7b-2-8-5[8:25]
,
