&title=lulu.
&artist=Mrs. GREEN APPLE
&first=-0.06
&des=lulu时间到了
&lv_5=13
&inote_5=(175)
{4},,
{4}5q3>1p5[4:13]*p7>1q5[4:13],,,,,,,,,,,,,,,,1p3p5p7p1[4:13],,,,,,,,,,,,,,,,
{4}3-1[8:1],,5-3[8:1],,7-5[8:1],,1-7[8:1],,2-4[8:1],2<6[2:1],5q1[4:1],,,8q1[2:1],2,3,,
{4}4-2[8:1],,6-4[8:1],,8-6[8:1],,2,2bh[1:1],,,,Ch[2:1]f,,,,
{8}3-1[8:1],,4,,3-8[8:1],,5,,6-8[8:1],,5,,6-1[8:1],,4,,
{8}2p5[16:5],,1,,8h[8:1],,8<5p1[2:1],,,,3,,4h[8:1],,4>1[4:1],,,,
{8}7,7p3[4:1],,,2,2>5[4:1],,7,6h[8:1],,6-4-1[16:5],,7,,
{8}8p3[4:1],,,1q6[4:1],,,8,8p6[8:5],,5,,4-1[8:1],,,,,
{8}2h[8:4],,,6,7-5-3[8:4],,,,B2,,,,1-6-4[4:1],,,,7h[2:1],,,3,2-4-6[2:1],,,,B7,,,,8h[4:1],,,,
{8}8q6[2:1]/4,,,2,2,,E1,,1p3[2:1],,,5,5,,E7,,7p3p7[8:8],,,,E5,,,,C,,,,,
{8}1,1b>5[4:1],,5<1[4:1],,1>5[4:1],,5<1[4:1],,1>5b[4:1],,5<1[4:1],,1>5b[4:1],,5<1[4:1],,
{8},1xq3[2:1],,7,7,,5-8[6:1],,{12}2,3,4,5-2[6:1],,,1,8,7,
{8}6<1[6:1],1,2,3,3b-8[4:1],,8-5[4:1],,5-2[4:1],,2-7b[4:1],,7-4[4:1],,4-1b[4:1],,1-6[4:1],,6-4-1>5b[1:1]*-8-5<1[1:1],,,,
{4},,,,{8},8,8h[4:1],,2q6[16:3],,6x>3[16:2],,7p3b[16:3],,3x<6b[16:2],,2q6[16:3],,6x>3[16:2],,7p3b[16:3],,3x<6b[16:2],,2,,
{8}1h[8:1],,1q4b[2:1],,7-4[4:1],,
{4},,,25,2p5[32:5]/5<8[32:5],,4x,13,1<6[32:5]/3q8[32:5],,1x,1bp4[8:1]*q6[8:1],C,
{4}3>1[12:1],4p8b[8:1],5q1[8:1],6<8b[12:1],{6}1x,4x/3x,6x/5x,
(87.5)
{4}8bx-2-4[12:1]*-6-4[12:1],{24}A8f,,,,3,,4/2q5[16:3],,,,7h[12:1],,2,,,,8,,8-5[16:1],,,,
{24}7,2,8-2-5[8:1],,1h[12:1],,,,3q5b[16:3]/8,,,,2,6,3,,,,,,
{24}7p6[16:3],,,,8,1,7,,,,,,2p4[16:2],,,,3,7,2<5b[4:1],,,,,,
{24}5p8[8:1],,4,,3,,2>4[16:1],,,,1,,2p5[8:1]*-8-5[8:1]/8,,1,,4,,2,,,,,,
{24}3p1[16:3],,,,7<4b[8:1],,3,,,,7p3[8:1],,1x>6b[16:3],,2,,7/8,,1,,,,
{24}7,,8-5[12:1],,8-2[16:1],,8-6[16:1],,8-3[12:1],,8,,8,,8p6b[16:3],,8,,2h[12:1],,,,,,
{24}8x>3[24:3],1x>4b[24:3],2bx>5[24:3],,,,6,7,8h[24:3],,,,1x<6[24:3],8x<5b[24:3],7bx<4[24:3],,,,4,3,2q5[48:11],,,,,,
{24}5<5b[2:1],,6,,7,,8bh[12:6],,,,,,,,,,,,,,,,
{24}6p4[12:6],,3h[12:2],,,,6,,2p5b[12:2],
