&title=恭喜发财
&artist=刘德华
&first=0.31
&des=呆铲
&lv_7=13
&inote_7=(132)
{2},,,,
{16}6h[16:3],,,5,
{8}6,8x/7x,2,
{24}8,1,8,
{8}1,,
{16}B7,,B3,B5,B2,,B8,,C,,A1/D2f/E2,,A1/D2f/E2,,,,
{16}6h[16:3],,,5,
{8}6,8x/7x,2,
{24}8,1,8,
{8}1,2,
{16}C,,B3,B5,B4,,Ch[8:1],,1w5[8:1],,,,,,,,
{8}4>1[8:1],,6,7,1/5<8[8:1],,1-6-2-5-3[2:1],2,,,,,C,8bx,8bx,,
{8}6/1>4[8:1],,7,6,4/8<5[8:1],,1-7-2-6-3-5b[2:1],2,,,,,C,8bx,8bx,7,
{8}16,2,38,7,
{24}6xh[8:1]/1,8,7,,5,4,3h[8:1],,,,,,
{8}83,7,61,2,
{8}8b/Cf,2b/Cf,6b/Cf,,
{8}83,7,61,2,
{24}3xh[8:1]/8,1,2,,4,5,6h[8:1],,,,,,
{8}16,2,38,7,
{8}1b/Cf,7b/Cf,2b/Cf,,
{8}8-3[8:1],,8-5[8:1]/6,,28,,4-8[8:6]*-8[8:6],3,
{16}2h[16:3],,,1,
{8}2,3,4,5,6,1x,
{8}1x-6[8:1],,1-4[8:1]/3,,71,,5q8[8:4],5b,
{16}4h[16:3],,,,
{8}4,3,2,1,8,7,
{16}7hx[16:3]/8x,,,8,
{8}7,7/8-4b[8:1],7-5b[8:1]/8,Cf,E6f,2,
{16}2hx[16:3]/1x,,,1,
{8}2,2/1-5b[8:1],2-4b[8:1]/1,Cf,E4f,,
{8}5<1[4:1],,1>5[4:1],,5<1[4:1],,
{8}1w5[16:27],,
(132)
{32}1x,2x,3x,4x,5x,6x,7x,8x,1x,2x,3x,4x,5x,6x,7x,8x,1x,2x,3x,4x,5x,6x,7x,8x,1x,2x,3x,4x,5x,6x,7x,8x,1x,2x,3x,4x,5x,6x,7x,8x,1xw5b[8:1],2x,3x,4x,5x,6x,7x,8x,,,,,,,,,
{8},5x,
{8}4,6,B2,5,3,4,B1,5,4,6,B3,5,3,5,E1,4,
{8}4p7[8:1]/3p7[8:1],,,,7,6,5pp5[8:6],5qq5[8:5],,,,,,,,
{8}5x,
{8}3,5,B1,4,2,5,A1,4,3,5,B2,4,2,4,D1,5,
{8}1-7[8:1],1-4[8:1],,,6-8-6[8:5],,2qq5b[8:4],,A2f,,,,,,,
{8}5x,
{8}4,6,B2/E3,5,3,4,B1/E2,5,
{8}3<3[8:5],4<3[8:4],5<3[8:3],6<3[8:2],,,,,
{16}8h[4:1],,,,6h[8:1],,1h[16:2],,5h[16:3],,,2h[16:3],,,4h[8:5],,1<4<1[8:4],,,,,,,,,,,,,,
{8}4x,
{8}6,4,B8/A8,5,7,4,B7/A7,5,6,4,B8/A8,5,7,5,B6/A6,4,
{8}7-2[8:1],3-6[8:1],,,1-3-5[8:6]*-7-5[8:6],,1>5[8:4]*<5[8:4],,,,,,,,
{8}5xh[8:6],,3>6<3[2:1],,A3f,,A6f,,
{8}8xh[8:6],,2>7<2b[2:1],,A2f,,A7f,,
{8}6,,6<8[8:1]/5q1[8:1],,,,3>1[8:1]/4p8[8:1],,,,
{8}8-4[8:1]/1,,1-5[8:1]/8,2,8-4[8:1]/1,7,81,,
{8}3<1[8:1],,3h[8:1],,1v6[8:1]/5v2[8:1],,,,5-8-2[8:1]/3-7[8:1],,,,1<4b[8:1],,,,
{8}3xh[8:4],2b,1b,8b,7b,7/8-4[8:1],,2b,2b,,3,,4,,5-1[8:1],,6b-2[8:1],,7b-3[8:1],,8b-4[8:1],,1b,,
{16}2h[16:3],,,1,
{8}2,38,
{24}3,4,5,6,7,8,
{8}1-6[8:1],,
{8}1-4[8:1]/3,,1-6[8:1]/7,,13,,
{8}5-1[8:6]*-1[8:6],6,
{16}7h[16:3],,,8,
{8}7,6,5,4,3,8x,
{8}8x-3[8:1],,8-5[8:1]/6,,28,,4p1[8:4],4b,
{16}5h[16:3],,,,
{8}5,6,7,8,1,2,
{16}3hx[16:3]/8x,,,1,
{8}2,2/1-5b[8:1],2-4b[8:1]/1,Cf,E4f,7,
{16}6hx[16:3]/1x,,,8,
{8}7,7/8-4b[8:1],7-5b[8:1]/8,Cf,E6f,,
{8}4-2-8[4:1],,8-6-4[4:1],,4-2-8[4:1],,8<8<4[8:6],,Cf,,,,,,,,
{8}1b-6[8:1]/2b-5[8:1],8b/3b,,,
{8}8w4[8:1]/7w3b[8:1],,
{8}B8`B7`B2`Cf`B5`E3`E4`E5,,
{8}5-2b[8:1],,5-8b[8:1]/7,,35,,1>4[8:1],3,
{8}1<6[8:1],7,1>4[8:1],3,1<6[8:1],7,1/4-1b[8:1],,
{8}4-7b[8:1],,4-1b[8:1]/2,,64,,8<5[8:1],6,
{8}8>3[8:1],2,8<5[8:1],6,8>3[8:1],2,8/5,
{8}6,
{16}7hx[16:3]/5x,,,5,
{8}6,4/3-7[8:1],5-1b[8:1]/2,A3f,A5f,
{8}2,
{16}3hx[16:3]/1x,,,1,
{8}2,8/7-3[8:1],1-5b[8:1]/6,A7f,A1f,,
{8}5<7[8:1]/4q8[8:1],,4>2[8:1]/5p1[8:1],,5<7[8:1]/4q8[8:1],,5>2qq7<4[8:14]/4<7pp2>5[8:14],,4b/5b,,,,,,,,,,,,,,,,
{8}6b/5b,6b/5b,
{16}7,1,
{8}8,3b/4b,3b/4b,1-5[8:1],7,
{8}2bx-6[8:1],,3bx-7[8:1],,4bxw8[8:1],,4b,,
{8}67,18,23,E
