&title=Rondo of the 3ND
&artist=Sephid
&first=0.102
&des=xiaye6783
&des_5=xiaye6783
&des_7=xiaye6783
&lv_5=14+
&lv_7=14+?
&inote_5=(230){4},{8},,,,,,,,,,,,,,2,
5,3,6,4,7,2,5,
{4}3h[8:3],{8}4,4,,2,6,1,
{4}8/2,6/5,7/1,2/5,
4/6h[4:1],{8}3,4,5,6,5,4,
3,3,5,5,2,2,6,6,
3,1,3,8,4,7,4,6,
2,2,5,3,6,6,4,7,
3,8,1h[8:1],6h[8:11],{2}4h[4:5],
{8},,,,,,,,,,,,,,,,8h[4:3],
,,3h[8:3],,,,,{4}6/4,
{8}6,3/7,,4,{4}8/2,
{8}1h[4:3],,,6h[8:3],,,,,{4}3/5,
{8}4,6/2,,5,{4}1/7,
{8}3h[4:3],,,5h[8:3],,,,,{4}7/8,
{8}2,1/6,,7,{4}2/8,
{8}6h[8:3],,,4,,,{4}6/4,
1/2,4/8,3/7,1/5,
{8}6h[4:3],,,8h[8:3],,,,,{4}7h[8:1]/1h[8:1],
{8}6,8h[8:1]/2h[8:1],,1,{4}7h[8:1]/4h[8:1],
{8}3h[4:3],,,1h[8:3],,,,,{4}2h[8:1]/8h[8:1],
{8}3,1h[8:1]/7h[8:1],,8,{4}2h[8:1]/5h[8:1],
{8}1h[4:3],,,2h[8:3],,,,,{4}8h[8:1]/3h[8:1],
{8}5,6h[8:1]/1h[8:1],,4,{4}7h[8:1]/3h[8:1],
1/5,6/4,2/1,6/8,
{1}7h[4:3]/3h[4:3],
8b/1bh[1:1],
{16}8,1,8,1,8,1,8,1,{4}8-4[8:1],8b,
{8}2/6,3/7,{4}8/4-8[8:1],4/6,1/7-3[8:1],
2/7,8/1-5[8:1],2/1,{8}3x/4x,2x/5x,
{4}6x/1x-4[8:1],2/1,3/5-8[8:1],5/6,
{8}2/1h[8:1],2,7/8h[8:1],7,{16}2,6,2,6,3,5,3,5,
{8}4h[8:3],7,{4}7,{16}2,1,{8}2,{16}7,8,{8}7,
{4}3h[4:1],{8}5h[8:1],2h[8:1],{16}8,1,{8}7,{16}4,5,{8}3,
6h[8:1],1h[8:1],7h[8:1],4h[8:1],{16}5,3,{8}8,{16}4,6,{8}1,
{4}3q8[2:1],6p1[4:1],{8},,,,7/3,
6/2,{4}1/5-1[8:1],5/3,8/2-6[8:1],
7/2,1/8-4[8:1],7/8,{8}6x/5x,7x/4x,
{4}3x/8x-5[8:1],7/8,6/4-1[8:1],4/3,
{8}7/8h[8:1],7,2/1h[8:1],2,{16}7,3,7,3,6,4,6,4,
{8}5h[8:3],2,{4}2,{16}7,8,{8}7,{16}2,1,{8}2,
{4}6h[4:1],{8}4h[8:1],7h[8:1],{16}3,5,{8}2,{16}6,4,{8}7,
{16}1x,8x,1x,8x,1x,8x,2,7,2,7,3,6,3,6,4,5,
{4}3>7[4:1],7<4[16:3],1xw5b[8:1],1b,
{32}E8/B8,B7,B6,E6,,,,,E4/B4,B3,B2,E2,,,,,{16}6,5,{8}6,{16}3,4,{8}3,
{32}E8/B8,B7,B6,E6,,,,,E4/B4,B3,B2,E2,,,,,{16}7,8,{8}7,{16}2,1,{8}2,
{32}E6/B5,B6,B7,E8,,,,,E2/B1,B2,B3,E4,,,,,{16}6,5,{8}7,{16}3,4,{8}2,
{32}E6/B5,B6,B7,E8,,,,,E2/B1,B2,B3,E4,,,,,{8}7/2,{16}8,1,{8}8,3h[8:1]/6h[8:1],
,7/2,{4}8bxh[8:1]/1bxh[8:1],{16}6x,5x,{8}8x,{16}3,4,{8}1,
{4}8bxh[8:1],{8}3x/5x,3x,3/6,3,3/7,3,
{32}8bx/1h[16:1],7,6,5,,,,,1bx/8h[16:1],2,3,4,,,,,7bx/2h[16:1],6,5,4,,,,,2bx/7h[16:1],3,4,5,,,,,{8}8/2,
8,8/5,8,8/1,8,8/3,8,
8-4b[8:1],1,{4}8bx,{16}3x,4x,{8}3x,{16}6,5,{8}6,
{32}D2/E2,A2,D3,A3,,,,,D6/E6,A6,D7,A7,,,,,{16}2,1,{8}2,{16}7,8,{8}7,
{32}D3/E3,A2,D2,A1,,,,,D7/E7,A6,D6,A5,,,,,{16}3,4,{8}2,{16}6,5,{8}7,
{32}D2/E2,A2,D3,A3,,,,,D6/E6,A6,D7,A7,,,,,{8}2x/7x,{16}1,8,{8}1,6h[8:1]/3h[8:1],
,2/7,{4}7/2,{32}1/8bx/B8,C,{16}B4,,,{4}3,
{32}1bx/8/B1,C,{16}B5,,,{4}6,{8}7/5,5/7,2/4,2/4,
1/8,1,1/3,1,1/7,1,1/5,1,
{1}6bx/1bxh[4:3],
{256}2s6<6b[4:29],6z2>2[256:1855],{1},,,,,,,{4},,,{16},,,{64},,,{128},{4}3/5h[4:1],
{8}4,5/3h[8:3],,,,,{4}8/2h[4:1],
{8}8,1/7h[4:1],,1,{4}2/6h[4:1],
4h[4:1],{8}5,4/6h[8:3],,,,,{4}1/7h[4:1],
{8}1,8/2h[4:1],,8,{4}7/3h[4:1],
6h[4:1],{8}1,7/8h[8:5],,,,,{4}7,
{8}6/1,6h[4:1],,1,{4}8/2h[4:1],
1,6/4,2/3,7/6,
{1}1h[4:3]/5h[4:3],
{4}3/4-8[4:5],3,3,2,
2,3,4,{8}5/4,5,
{4}6/5s1b[4:5],6,6,7,
7,6,5,{8}7,3,
{6}8/B2,7,6,5/B8,{48},{16}4,{48},,,,{6}3,
2/B6,1,8,7/B2,6,5,
3h[6:1],4h[6:1],2h[6:1],6h[6:1],5h[6:1],7h[6:1],
{4}1>4b[8:1]*<6b[8:1],1w5[8:1],1b,8x/2x,
{8}7-4b[8:1]/2-5b[8:1],8bx/1bx,{4}7bx/2bx,{8}8/1,7,{24}1b,2,3,8,,,{8}7x/4x,
6,5/3,2,1-3[8:1],7-4[8:1],1,7,
2x,2,3/5,2h[8:1]/6h[8:1],,6/2,{4}7h[8:1]/1h[8:1],
{8}8bx,4h[8:1],{24}8bx,7x,6x,4h[8:1],,,8bx,1x,2x,4h[8:1],,,8bx,7x,6x,5x/2,,,{4}1x-5b[8:1]/8x-4b[8:1],
1bx/8bx,{8}7/2,3h[8:1],{24}1b,8,7,6,,,{8}3/8,
2,1/7,6,7-3b[8:1],2-5b[8:1],7,2,
{4}8h[8:1],7h[8:1]/2h[8:1],{8}1/6,3,8/2,7,
1/8,6/2,5/3,1/7,{32}2b,3,4,5,6,7,8,1,{4}2x/6x,
2-5b[8:1]/7-4b[8:1],2bx/7bx,{8}1/8,2,{24}8b,7,6,1,,,{8}2x/5x,
3,4/6,7,8-6[8:1],2-5[8:1],8,2,
7x,7,6/4,7h[8:1]/3h[8:1],,3/7,{4}8h[8:1]/2h[8:1],
{8}1bx,5h[8:1],{24}1bx,2x,3x,5h[8:1],,,1bx,8x,7x,5h[8:1],,,1bx,2x,3x,4x/7,,,{4}8-4b[8:1]/1-5b[8:1],
8bx/1bx,{8}3/7,6h[8:1],2,1/8,
{4}6xh[8:1]/4xh[8:1],{8}7/3,8h[4:1]/2h[4:1],,,7/1,6h[4:1],
{24}8b,1,2,3,,,{8}8x/4x,3x/7x,{4}6xh[8:1]/2xh[8:1],{8}6/2,7/3,
8/4,5/1,8/4,3/7,2/6,1/5,6/2,7/3,
{1}2bh[4:3]/6bh[4:3],
{32}1b,2,3,4,5,6,7,8,1,2,3,4,5,6,7,8,{4}1w5b[8:1],1b,
{16}1,8,{8}1,2/7,1,7,7,2,3,
{16}5,4,{8}5,2/6,1/7,8h[8:1],{24}2b,3,4,{8}8h[8:1],{24}2b,3,4,
{16}1,8,{8}1,2/6,7,8,1/2,3,4/5,
6,7/2,8/1,8/1,{16}2,7,3,6,{4}4xh[8:1]/5xh[8:1],
{16}3,6,{8}3,8,1,2,8,2/7,3/6,
5/4,4,6/3,7/2,1h[8:1],{24}7b,6,5,{8}1h[8:1],{24}7b,6,5,
{16}1,8,1,8,1,8,1,8,2,7,2,7,2,7,2,7,
{8}E1,E2,A3,D5,A6,D8,A1,D3,
{16}3xh[#3.91304],,,,,,,,,,,,,,,,{1}5h[4:11],
E
&inote_7=(230){4},{8},,,,,,,,,,,,,,2,
5,3,6,4,7,2,5,
{4}3h[8:3],{8}4,4,,2,6,1,
{4}8/2,6/5,7/1,2/5,
4/6h[4:1],{8}3,4,5,6,5,4,
3,3,5,5,2,2,6,6,
3,1,3,8,4,7,4,6,
2,2,5,3,6,6,4,7,
3,8,1h[8:1],6h[8:11],{2}4h[4:5],
{8},,,,,,,,,,,,,,,,8h[4:3],
,,3h[8:3],,,,,{4}6/4,
{8}5,3/7,,4,{4}8/2,
{8}1h[4:3],,,6h[8:3],,,,,{4}3/5,
{8}4,6/2,,5,{4}1/7,
{8}3h[4:3],,,5h[8:3],,,,,{4}7/8,
{8}2,1/6,,4,{4}2/8,
{8}6h[8:3],,,4,,,{4}6/4,
1/2,5/8,3/7,4/8,
{8}6h[4:3],,,8h[8:3],,,,,{4}7h[8:1]/1h[8:1],
{8}6,8h[8:1]/2h[8:1],,1,{4}7h[8:1]/4h[8:1],
{8}3h[4:3],,,1h[8:3],,,,,{4}2h[8:1]/8h[8:1],
{8}3,1h[8:1]/7h[8:1],,8,{4}2h[8:1]/5h[8:1],
{8}1h[4:3],,,2h[8:3],,,,,{4}8h[8:1]/3h[8:1],
{8}5,6h[8:1]/1h[8:1],,4,7/3,8/2,
{4}1/5,6/4,2/1,6/8,
{1}7h[4:3]/3h[4:3],
6b/1bh[1:1],
{16}8,1,8,1,8,1,8,1,{4}8-4[8:1],8b,
{8}2/6,3/7,{4}8/4-8[8:1],4/6,1/7-3[8:1],
2/7,8/1-5[8:1],2/1,{8}3x/4x,2x/5x,
{4}6x/1x-4[8:1],2/1,3/5-8[8:1],5/6,
{8}2/1h[8:1],2,7/8h[8:1],7,{16}2,6,2,6,3,5,3,5,
{8}4h[8:3],7,{4}7,{16}2,1,{8}2,{16}7,8,{8}7,
{4}3h[4:1],{8}5h[8:1],2h[8:1],{16}8,1,{8}7,{16}4,5,{8}3,
6h[8:1],1h[8:1],7h[8:1],4h[8:1],{16}5,3,{8}8,{16}4,6,{8}1,
{4}3q8[2:1],6p1[4:1],{8},,,,7/3,
6/2,{4}1/5-1[8:1],5/3,8/2-6[8:1],
7/2,1/8-4[8:1],7/8,{8}6x/5x,7x/4x,
{4}3x/8x-5[8:1],7/8,6/4-1[8:1],4/3,
{8}7/8h[8:1],7,2/1h[8:1],2,{16}7,3,7,3,6,4,6,4,
{8}5h[8:3],2,{4}2,{16}7,8,{8}7,{16}2,1,{8}2,
{4}6h[4:1],{8}4h[8:1],7h[8:1],{16}3,5,{8}1,{16}6,4,{8}8,
{16}2x,1x,2x,7x,8x,7x,1x,8x,3,6,3,6,4,5,4,5,
{4}3-7b[8:1],2-6b[8:1],1w5b[8:1],1b,
{32}E8/B8,B7,B6,E6,,,,,E4/B4,B3,B2,E2,,,,,{16}6,5,{8}6,{16}3,4,{8}3,
{32}E8/B8,B7,B6,E6,,,,,E4/B4,B3,B2,E2,,,,,{16}7,8,{8}7,{16}2,1,{8}2,
{32}E6/B5,B6,B7,E8,,,,,E2/B1,B2,B3,E4,,,,,{16}6,5,{8}7,{16}3,4,{8}2,
{32}E6/B5,B6,B7,E8,,,,,E2/B1,B2,B3,E4,,,,,{8}7/2,{16}8,1,{8}8,3h[8:1]/6h[8:1],
,7/2,{32}8/1bx/B1,C,{16}B5,,,6x,5x,{8}8x,{16}3,4,{8}1,
{32}8bx/B8,C,{16}B4,,,{8}3x/5x,3x,3/6,3,3/7,3,
{32}8bx/1h[16:1],7,6,5,,,,,1bx/8h[16:1],2,3,4,,,,,7bx/2h[16:1],6,{16}5,{8}4,{32}2bx/7h[16:1],3,4,5,,,,,{8}8/2,
8,8/5,8,8/1,8,8/3,8,
8-4b[8:1],1,{4}8bx,{16}3x,4x,{8}3x,{16}6,5,{8}6,
{32}D2/E2,A2,D3,A3,,,,,D6/E6,A6,D7,A7,,,,,{16}2,1,{8}2,{16}7,8,{8}7,
{32}D3/E3,A2,D2,A1,,,,,D7/E7,A6,D6,A5,,,,,{16}3,4,{8}2,{16}6,5,{8}7,
{32}D2/E2,A2,D3,A3,,,,,D6/E6,A6,D7,A7,,,,,{8}2x/7x,{16}1,8,{8}1,6h[8:1]/3h[8:1],
,2/7,{4}7/2,{32}1/8bx/B8,C,{16}B4,,,{4}3,
{32}1bx/8/B1,C,{16}B5,,,{4}6,{8}7/5,5/7,2/4,2/4,
1/8,1,1/3,1,1/7,1,1/5,1,
{1}6bx/1bxh[4:3],
2bh[4:7]/8bh[4:11],
,3h[4:7],
7h[4:7],
1h[4:7],
5h[4:7],
3h[4:5],
{2}7h[4:3],1h[4:1],
{4}3/5h[4:1],{8}4,5/3h[8:3],,,,,{4}8/2h[4:1],
{8}8,1/7h[4:1],,1,{4}2/6h[4:1],
4h[4:1],{8}5,4/6h[8:3],,,,,{4}1/7h[4:1],
{8}1,8/2h[4:1],,8,{4}7/3h[4:1],
6h[4:1],{8}1,7/8h[8:5],,,,,{4}7,
{8}6/1,6h[4:1],,1,{4}8/2h[4:1],
1,6/4,2/3,7/6,
{1}1h[4:3]/5h[4:3],
{4}3/4-8[4:5],3,3,2,
2,3,4,{8}5/4,5,
{4}6/5s1b[4:5],6,6,7,
7,6,5,{8}7,3,
{6}8/B2,7,6,5/B8,{48},{16}4,{48},,,,{6}3,
2/B6,1,8,7/B2,6,5,
3h[6:1],4h[6:1],2h[6:1],6h[6:1],5h[6:1],7h[6:1],
{4}1>4b[8:1]*<6b[8:1],1w5[8:1],1b,8x/2x,
{8}7-4b[8:1]/2-5b[8:1],8bx/1bx,{4}7bx/2bx,{8}8/7,6,{24}1b,2,3,8,,,{8}7x/4x,
{16}6,5,{8}6,3/8,1-3[8:1],7-4[8:1],1,7,
2x,{16}3,4,{8}3,2/5,{16}3,5,{8}3,2/6,1/7,
8bx,4h[8:1],{24}8b,7,6,4h[8:1],,,8b,1,2,4h[8:1],,,8b,7,6,5/3,,,{8}1-5b[8:1]/8-4b[8:1],
2bx/7bx,{4}1bx/8bx,{8}8/2,3h[8:1],{24}1b,8,7,6/4,,,{8}3/8,
{16}2,1,{8}2,8/3,7-3b[8:1],2-5b[8:1],7,2,
8,8/1,{24}8bx/1bx,7x/2x,3x/6x,5x/4x,,,{8}7/1,{16}8,2,{8}8,1/3,
2,{32}8bx,7,6,5,{8}2,{32}8bx,7,6,5,2bx,3,4,5,6,7,8,1,{4}2/6b,
{8}2-5b[8:1]/7-4b[8:1],8bx/1bx,{4}2bx/7bx,{8}1/2,3,{24}8b,7,6,1,,,{8}2x/5x,
{16}3,4,{8}3,6/1,8-6[8:1],2-5[8:1],8,2,
7x,{16}6,5,{8}6,7/4,{16}6,4,{8}6,7/3,8/2,
1bx,5h[8:1],{24}1b,2,3,5h[8:1],,,1b,8,7,5h[8:1],,,1b,2,3,4/6,,,{8}8-4b[8:1]/1-5b[8:1],
7bx/2bx,{4}8bx/1bx,{8}1/7,6h[8:1],{24}8b,1,2,3/5,,,{4}6h[8:1]/4h[8:1],
{8}7/3,8/2,{16}6,5,{8}6,7/1,6h[4:1],
{24}8b,1,2,3,,,{8}8x/4x,3x/7x,{4}6xh[8:1]/2xh[8:1],{8}6/2,7/3,
{16}4,8,3,7,2,6,1,5,2,6,3,7,4,8,3,7,
{1}2bh[4:3]/6bh[4:3],
{32}1bh[32:1],2h[32:1],3h[32:1],4h[32:1],5h[32:1],6h[32:1],7h[32:1],8h[32:1],1h[32:1],2h[32:1],3h[32:1],4h[32:1],5h[32:1],6h[32:1],7h[32:1],8h[32:1],{4}1w5b[8:1],1b,
{16}1,8,1,8,{8}2/7,1,2/7,8,7/2,3,
{16}4,5,4,5,{8}2/6,1/7,8h[8:1],{24}2b,3,4,{8}8h[8:1],{24}2b,3,4,
{16}1,8,1,8,{8}2/6,7/3,{16}6,5,{8}6,{16}3,4,{8}3,
{16}2,7,2,7,1,8,1,8,2,7,3,6,{4}4xh[8:1]/5xh[8:1],
{16}3,6,3,6,{8}2/8,4/7,{16}1,8,{8}1,2/7,3/6,
{16}5,4,{8}5,6/3,7/2,1h[8:1],{24}7b,6,5,{8}1h[8:1],{24}7b,6,5,
{16}2,8,2,8,3,7,3,7,4,6,2,5,1,6,8,7,
{8}E1,E2,A3,D5,A6,D8,A1,D3,
{1}4h[4:15],
6h[4:11],
E
