&title=神様の言う通り♡♥(Make a wish come true!)
&artist=恋摘もなか
&first=0.6
&des=答应我,别看pv看谱面(对pv有感觉的都是给)
&lv_5=14
&inote_5=(206)
{1}1>5[1:1],
7qq5[4:3],
{2}3>8[4:3],5,
7qq8[1:1],1,
2-6[4:3],8,
{1}7h[2:3],
{2},{8}1,1,1,1,
28,7,6-4[8:1],,2-6[8:1],,8,7,
1-4[8:1],,7-3[8:1],,2,2,4,5,
5<8[8:1]/3,,1,,12,{24}3,4,5,{8}7,7-4[8:1],
,1,2,3,2-5[8:1],2,8,8,
71,2,3-5[8:1],,7-3[8:1],,1,2,
8-5[8:1],,2-6[8:1],,7,7,5,4,
13,3,35,3,37,3,2h[8:1]/8,4h[8:1],
5h[8:1],7h[8:1],1h[8:1],8,2-6b[8:1]/7-3[8:1],27,,,
4,,3,,,3,34,,
6,,6,5,,5,6,,
4,,34,,,25,25,,
7,,5,6,47,7-3[8:1]/4,,1b,
,,2>5[8:1],,8,7,6<1[8:1],,
4,,3,3,8,1-5[8:1],7,7,
,,8<5[8:1],,4,3,2-6[8:1],,
6,,8,8,17,17,26,26,
3h[4:1],,4,,6,6,56,,
3,,34,,6,6,5,6,
3,,34,,6,6,57,8-4[8:1],
,2-6[8:1]/8,,2/5h[4:1],,{24}D8,A8,D1,A1,D2,A2,D3,A3,D4,
{8}4xb-8[8:1]/7xb-4[8:1],,7,,1>4[8:1],,4,,
8<5[8:1],,5,,3>8[8:1],3,5,,
7-3[8:1],,1,1,1/5x-8[8:1],1,1,1,
2-5[8:1],2,7-4[8:1],7,{16}3,2,1,8,7,6,5,4,
{8}3b-7[8:1]/7b-3[8:1],,,,1s5[4:1],,,,
6-3[8:1],,2-7[8:1],,5-1[8:1],,1b,,
2v3-5[4:1],,5,,6v7-1[4:1],,1,,
4qq5[8:3],,8<5b[8:1],,,,3w7b[8:1],,
,,,,1V35[4:1],,5V71[4:1],,
1-5-2b[8:3]*-5-8b[8:3],,,,,,7-3[8:1],,
1-3[8:1],,5-7[8:1],,2-4[8:1],,6-8[8:1],,
1-3b[8:1]*-4[8:1],,,,5-8b[8:1]/6-8b[8:1],,,,
1xbpp4b[2:3],,7,7,7h[4:1],,,,
6,6,6,6,5h[4:1],,,,
5pp8b[8:7],,,,3,3,3,3,
2-4[8:1],,2,,3-1[8:1]/7-5[8:1],,37,,
8/4-8[2:1],,8,,1,,1,,
2/5-1b[2:1],,2,,3,,3,,
4/8-4[8:1],,2-5[8:1]/8,,2/7-4[8:1],,17,,
3,3,27,27,{16}1,8,1,8,1,8,1,8,
{1}2xh[1:1],
{24}1b,38,47,5-1[8:1]/6,,,,,,{8}3>8[8:1]/5,,3/7qq1[8:3],,27,
,,4>8[4:1],,8<4[4:1],,4>8[4:1],,
7h[8:3],,,{24}5,4,3,{8}2b/8bw4[8:1],,8,,
2x-6[8:1],,1x-5[8:1],,8x-4[8:1],,7x,,
3b/5b,3,2bq5[8:3]/4b,2,6b<1b[8:1],,6b,,
6b/4b,6,7bp4[8:3]/5b,7,3b>8b[8:1]
,,3b,,
2b/5b,3,4bpp8[8:3]/7b,6,24,1>4b[8:1],,1<6b[8:1],
,1-5b[8:1]/3,,17,,{16}48,37,26,,,,
{24}8b/7b,61,52,4-8[8:1]/3,,,,,,{8}6<1[8:1]/4,,6/2pp8[8:3],,72,
,,5<1[4:1],,1>5[4:1],,5<1[4:1],,
2h[8:3],,,{24}4,5,6,{8}7b/1bw5[8:1]
,,1,,
7x-3[8:1],,8x-4[8:1],,1x-5[8:1],,2x,,
3b/7b,7,4b/8bqq5[8:3],8,1b>4b[8:1],,1b,,
6b/2b,2,5b/1bpp4[8:3],1,8b<5b[8:1],,8b,,
3b-8[8:1]/7b-4[8:1],,3b/7b,,1>4[4:1],,4<7[4:1],,
7>2[4:1],,2>3v5[4:1],,5,,7,,
8-4[8:1]/3,3,28,2,1x/5<8[8:1],2x,3x/5,4x,
1-5[8:1]/5,5,1/3,3,2x/6<1[8:1],3x,4x/6,5x,
4-1[8:1],4,8-5[8:1],8,2-6[8:1],2,4-8[8:1],4,
5x-1[8:1],5,6x-2[8:1],6,7x-3[8:1],7,8x-4[8:1],8,
1>4[8:1],1,5,6,5>2[8:1]/7x,8x,1x,8x,
{1}1xbs5[2:1]`7xbz3b[2:1],
{8}2-5b[8:1],,8z4[4:1],,4,3,2s6[4:1],,
6<2[4:1],,2>5[16:3],,7x-4[8:1]*-2[8:1],,,,
6-3b[8:1],,1s5[4:1],,5,6,7s3[4:1],,
4x>1b[8:1],,4b<7b[8:1],,4bw8b[8:1],,4b,,
