&title=山东车牌歌
&artist=烟嗓兄弟
&first=0
&lv_5=12
&des_5=我是wmc
&inote_5=
(125){4},{8}8b/1b,2b/7b,{32},6b/3b,,,,5b/4b,,,,6b/3b,,,,7b/2b,,,,8b/1b,
{16},,,{4}B8f/B1f/E2f/E1f/E8f/B7f/E7f/B6f/E6f/B5f/E5f/B4f/E4f/B3f/E3f/B2f/Ch[1:1],{8}B8/E1/B1,B2/E3/B3,B5/E5/B4,B7/E7/B6,
B8f/E1f/B1f,{4},{8}B8/B1/B2,B7/C/B3,{4},{8}6-1-4[32:13]*q4[32:13],
1,A7,A3,A8/A2,,,,8b-5qq5[8:5],
A7,A6,A8/A1,A2/A3,{32},,,,,,,,,,,2<4[0.3##0.42],,,,A8/A1,
,,,A6/A7,,,,1-4pp4[0.3##0.54],,,,8,,,,8,,,,8,,,,,,6-2<3[32:15],{4},,,{32},6b/3b,
{8},{4}2<8-4<6[32:13]/7-3[32:13],
{32},,,,,,,,,,,,,,,,,7b/2b,{16},,,{4}1<2-6[32:15],
{32},,,,,,,,,,,,,,,,,7b/2b,,,,,,,,8,,,,1,,,,2,
,,,3,,,,8-6qq4[0.24##0.48],,,,4,,,,5,{16},,,{8}7/1-4<6[0.24##1.08],7,
7,7,{4}7bh[16:3],{32},,,,,,,8-6-2[0.36##1.02]/7-4[8:1],,,,,,8x,,7x,
,E7/D7/B5/E6,,A6,{8},,,{4}3b/1b,{8}8-5>4[0.24##0.96],1,
2,3,4,{32}5b,{16},{32}8b/6b,{16},,,6-8-5-2-4[0.3##0.66],{32},,,6x,,,,1bx,
{16},,,6-8-4-2[0.3##0.6],{32},,,6x,,,,1b,{16},,,5-8>2v7[0.42##0.48],{8},,,,,5b/4b,
{32},,,,,1qq1-4[0.36##0.54],,,,,,,,A2/E3/A3,{8},{16}E7/B6/E6,
{4},{8}6b/5b,{32},,,,,5-8[32:11]*q2[32:11],,,,,,,,,,,,A7/E7/A6,
{16},{8}A2/E3/A3,,1b,,2<7-3<6[8:5],B2,E1,
B7,C,B3,E5,E6,8-5-2[0.24##0.36],{4},{8}6<2v4[0.3##0.3],
{4},{8}8b/1b,,8/1,{16}2,4,{8}3,
{16}7,5,{8}6,{4}8b/1b,{32},,,5/4,,,,3,,1,,2,,,,6,
,8,,7,{8},{4}8b/1b,{32},,,8,,8,,1,,1,,7,,7,,2,
,2,,6b,,3b,,5b,,4b,{4},{16}4b/5h[4:3],,3b,,2b,,1b,
,8b,,8b,,8b,,,,8-4[0.36##0.96],,6>5-3>2[0.36##0.72],{4},,,{32},1w5[2:1],
,,,1-5b[0.24##0.48],{16},,,,,,,,,,,,,{8}4,
{16}3,2,{8}1,8-4[16:19],
7,1,6,2,5,3,4b,4b,
{16}4b,{8},,,{32}8,1,8,1,{16}8,{32}1,8x,7x,6x,5x,4x,3x,2x,1x/8,7x,6x,5x,
4,3,2x,1x,8x,7,6,5x,4x,3,2x,1,{8},{2}1b,
E
