&title=To the Milky Way
&artist=黒魔
&first=1.29
&des=STellARs with Ebenholz
&lv_5=14
&inote_5=(186){4}3h[8:5]/5h[8:5],,,{8},6h[8:5]/4h[8:5],
{4},,,5/3,
{8}2h[4:1],4,5,6h[4:1],,5h[4:1],,8pp5[8:5],
{1},{8}4h[8:5]/6h[8:5],
{4},,,{8}3h[8:5]/5h[8:5],
{4},,{8},2h[4:1],4,5,
,3h[4:1],5,6,,4h[4:1],6,7pp5[8:5],
{4},,,2b,
{8}5/3,4,6,5-2[8:1],,7-4[8:1],,1>4[4:1],
,5,6,7,{4}8-4[8:1],{8}8,3,
2,1-6[8:1],5,7-3[8:1],,4>5[8:7],,4,
{1},{8}4/6,
5,3,4-7[8:1],,2-5[8:1],,8<5[4:1],
,4,3,2,1,4-8[8:1],2,4,
,7-3[8:1],4,7,,1-5[8:1],3,1qq4[8:5],
{4},6,{2},{8}7/5,
7h[8:13]/5h[8:13],{1},{4},,{8},4h[4:1]/6h[4:1],
{4},5h[8:7]/3h[8:7],,,,{8},{16}3,
5,3,5,3,5,{4}3,
{8}4/2q5[8:5],2/4,{4},{8}C,{4},{8}7pp4[4:3],
{4},B3,,{8},2>5[8:3],
{4},C,{8}B6,B8/E8,,7V51[8:3],
{2},B3,
{1}Ch[1:1],
{4},B8,B2,B6,
B4,{8}5,5,,4,3,5s1[8:5]/2>7[8:5],
{1},{8}2/5,
{16}3,4,{8}3,7/4,{16}6,5,{8}6,1/5,{16}2,4,
{8}3,4/8,{16}7,5,{8}6,{4},{16}6h[8:1]/4h[8:1],{8},{16}6h[8:1]/4h[8:1],
{8},7/5,{4}5/7,{16}3h[8:1]/5h[8:1],{8},{16}3h[8:1]/5h[8:1],{8},2/4,
{2}2-5[8:1]/4-7[8:1],{8}C,{16}7,8,{8}7,6/1,
2-4[8:1],1-5b[8:1],2-6[8:1],1,{4}2,{8}7-4[8:1],8-3b[8:1],
7,8,6,{16}5,6,{8}4,7,1q5[8:1],8,
7<4[8:1],8,1-5[8:1],2,1,6,7pp4[2:1],4,
3/7b,{2},{16}3,4,{8}3,5/2,
{16}1,{8},{16}7,{8}8,6,5/4,3,{4}2-6[8:1],
2/8-3[8:1],8/5-1[8:1],5/7-4[8:1],7/2-6[8:1],
2/7,{16}7,8,{8}7,6/1,2,{4}4-1[8:1]/8-5[8:1],
{16}8b/4b,{8},{16}B1/B5/A1/A5,{8},B3/B7/A7/A3,,{16}2,1,{8}2,3/8,
7-5[8:1],8-4b[8:1],7-3[8:1],8,{4}7,{8}2-5[8:1],1-6b[8:1],
2,1,3,{16}4,3,{8}5,2,8p4[8:1],1,
2>5[8:1],1,8-4[8:1],7,8,3,2qq5[2:1],5,
6/2b,{2},{16}6,5,{8}6,4/7,
{16}8,{8},{16}2,{8}1,3,{16}4/5,{8},{16}7,{8}8,6,
{16}5/4,{8},{16}2,{8}1,3,4/5,{16}7,8,{8}7,1,
6-1[8:1],2,3,4>1[8:1],8,7,6-2[8:1],2,
3,4-8[8:1],8,7,6,1,{4}7-4[8:1]/3-8[8:1],
7b/3b,1>4[8:1]/5<8[8:1],5b/1b,1-6[8:1]/5-2[8:1],
5b/1b,1-5[8:1],{8}1b,6,7,8,
1/2,2/1,3/4,4/3,6/5,5/6,8/7,7/8,
6/1,{16}2,4,2,4,3,5,3,5,4,6,{4}4,
{8}3b/7b-3[8:1],7/3,{4},{8}5b/1b-5[8:1],1/5,{4},{8},7b/4b,
{16},5b/2b,{8},{4}1b/8bw4[8:1],8,
{8}6b/2b-6[8:1],2/6,{4},{8}4b/8b-4[8:1],8/4,{4},{8},2b/5b,
{16},4b/7b,{8},{2}8b/1bw5[8:1],
{1}7q5<1>7b[2:13]/3q1>5<3[2:13],
,,,,,,{4}3,
3,{16}3,4,{8}2,{4},{8}5h[4:1],
2,2,3h[4:1],6,6,7h[4:1],4,
3,6h[4:1],3,2,5,4,3,4,
5-2[8:1],6,7,8-5[8:1],1,2,3-8[8:1],4,
5,6>3[8:1],7,8,1<6[8:1],2,3,4,
5w1[2:3],5,{1},{4},,,{12}6,
5,6,3,4,3,7,5,6,2,4,3,
{1}Ch[4:3],
{4}B2/E2,E6/B6,{16}E3,{8},{16}E4,{8},E5,
{16}E7,{8},{16}E8,{8},E1,{4}2-6b[8:1],2bx,
{8}7bx/5bx,6bx/4bx,{4}3bx/5bx,{16}1-5[8:1],8,2,7,{4}1,
{16}8x,4,8,4,8x,4,8,4,8x,4,8,4,8x,4,8,4,
7x,5,7,5,7x,5,7,5,6x,4,6,4,6x,4,6,4,
5x,3,5,3,5x,3,5,3,4x,2,4x,4x,3x,5,3,5,
4x,6,5,7,4x,6,5,7,4x,6,5,7,4x,6,5,7,
3x,8,2,1,3x,8,2,1,3x,8,2,1,3x,8,2,1,
3x,4,2,5,3x,4,2,5,3x,4,2,5,3x,4,2,5,
3x-6[12:1],{8},{16}7x-2[12:1],{8},1x-4[12:1],{16},5x-8[12:1],{8},1x,2x,
{16}3x,7,3,7,3x,7,3,7,3x,7,3,7,3x,7,3,7,
4x,6,5,7,4x,6,5,7,4x,6,5,7,4x,6,5,7,
3x,4,2,5,3x,4,2,5,3x,4,2,5,3x,4,2,5,
{8}3x,{16}6,5,{8}6x,4/7,3x/8x,{16}2x,1x,{8}3x,4/5,
6x,5x,{16}7,8,{8}7,2x,1x,{16}3,4,{8}3,
6x,5x,{16}7,8,{8}7,1x/6x,{16}2x,4x,{8},3/5,
{1}4b-1>5[4:7]/6b-1<5[4:7],
,,,{4},,{8},5h[8:1],
,3,
6,5,4,3h[8:1],{4},{8}6,5,
4,3h[8:1],5,4,6,5,4,3,
4,5,6,6,5,5,4,4,
3h[2:1],{2},{16}3,3,{8}5,4,
{16}6,5,6,5,7,4,7,4,8,3,8,3,1,2,1,2,
7,8,7,8,6,1,6,1,5,2,5,2,4,3,4,3,
5,6,7,8,2,3,4,5,7,6,5,4,1,2,3,4,
{24}8,7,6,5,4,3,2,1,8,7,6,5,{8}4,{16}2,1,{8}2,8/3,
{16}4,{8},{16}6,{8}5,7,8/1,2,3,4/6,
{4}3/7v4[8:1],7/2q6[8:1],2/8p4[8:1],8/1v6[8:1],
1/7,{16}7,8,{8}7,6/1,2,{4}3<5[8:1]/5q1[8:1],
{16}5b/3b,{8},{16}B4/B8/A4/A8,{8},B2/B6/A6/A2,,{16}3,4,{8}3,2/5,
1-4[8:1],7-3b[8:1],1-6[8:1],7,{4}1,{8}8-5[8:1],2-6b[8:1],
8,2,7,{16}1,8,{8}2,1,3>8[8:1],4,
5q1[8:1],6,3-8[8:1],4,5,6,7pp4[2:1],2,
7b/3,{2},{16}2,1,{8}2,8/3,
{16}4,{8},{16}6,{8}5,7,{16}8/1,{8},{16}3,{8}4,2,
{16}1/8,{8},{16}6,{8}5,7,8/1,{16}3,4,{8}3,5,
2-5[8:1],6,7,8<5[8:1],4,3,2-6[8:1],6,
7,8-4[8:1],4,3,2,5,{4}3-8[8:1]/7-4[8:1],
3b/7b,5<8[8:1]/1>4[8:1],1b/5b,5-2[8:1]/1-6[8:1],
1b/5b,1-5[8:1],{8}1b,8,7,6,
5/3,3/5,7/8,8/7,6/4,6/4,2/1,1/2,
8/3,{16}7,5,7,5,6,4,6,4,5,3,{4}5,
{8}6b/2b-6[8:1],2/6,{4},{8}4b/8b-4[8:1],8/4,{4},{8},2b/5b,
{16},4b/7b,{8},{4}8b/1bw5[8:1],1,
{8}3b/7b-3[8:1],7/3,{4},{8}5b/1b-5[8:1],1/5,{4},{8},7b/4b,
{16},5b/2b,{8},{4}1b/8b,{16}7,6,5,4,
3,2,1,8,7/3,4,5,6,7,8,1,2h[16:5],{4},{32},B2,
C,B6,{8}6x-2<6b[8:29]*-2>6[8:29],
E
