&title=girls.exe
&artist=rintaro soma
&first=0.03
&des=
&des_5=uZagi in DeluZion
&des_6=Cmaj9/L no5
&lv_5=14+
&lv_6=15
&lv_7=[蔵]15
&inote_5=(188)
{1},
{4},Ch[24:8],,,
(94)5xs1[4:6],5hx[4:6],,,,,,,
(188){32}D3,A3,D4,A4,,,,,,,,,,,,,{4},,A5,,,,A6,,,,8w4[94#8:1],,,,
6<3[94#4:6],6h[4:13],,,,,,,,,,,,,,,
{16}5,4,5,4,5,4,5,4,5,4,5,4,5,4,5,4,6,4,6,4,6,4,6,4,7,4,7,4,7,4,7,4,{32}8,7,6,5,4,3,2,1,8,7,6,5,4,3,2,1,8,7,6,5,4,3,2,1,8,7,6,5,4,3,2,1,
{16}8,{32}A3,D4,A4,,,,A6,D6,A5,,,,E3,B3,B4,,,,E7,B6,B5,,,,E1,C,E5,,,,
{4},,,,,,{16}2,1,2,1,2,1,2,1,
3-5[8:1],,,,7h[4:1],,,,8,,6,5,6,,78,,6,5,6,5,7,,3,4,3,4,2-6-4[16:3],,8,,,,
7-3[8:1],,,,2h[8:2],,,,1,,3,4,3,,12,,3h[16:1],,3h[16:1],,5,4,5,4,6-4[8:1],,C,,,,,,
1x,,,,2,4,2,4,3,,6,5,7,,7h[8:1],,8,,6,5,7,5,7,5,8,,,17,,,17,,2,,2,,3,4,3,4,3,6,,6,5,6,,2h[16:14],
,E1,,,B8,,,C,,,B4,,,E5,,,
,,78,,78,,16,,{24}2,3,4,5,,,5,,,{16}3,4,3,4,2,4,3,4,2,,7,8,6,,6,,3h[8:1],,5h[8:1],,7h[8:1],,1h[8:1],,2,,34,,34,,2,,34,,2,,{24}E7,B6,B5,E3,B3,B4,E8,B7,B6,E2,B2,B3,8,,,{16}Ch[4:1],,,,
7-5[8:1],,,,8-4-2[16:3],,,,{12}6x-8[8:1],6x,6x,{16}1x-5[8:1],,,,8hx[32:1],,,,7,,65,,,,2,,3/4-8[8:1],,,,1-5[8:1],,,,12,,2,,3<6[4:1],,,,6<1[16:4],,,,1>4[8:2],,,,5,,,,6h[16:1],,,,6h[16:1],,,,
{8}7-1[8:1],6,5,4-6[8:1],3,2,1-3[8:1],8,7,6-8[8:1],5,4,3-1[8:1],3,4,5,6-4[8:1],7,8,1-7[8:1],2,3,4-2[8:1],5,6,7-5[8:1],8,1,2,3h[8:2]/4h[8:2],,,
5<7[8:1],4,3,2>4[8:1],1,8,7>1[8:1],6,5,4<6[8:1],3,2,1-3[8:1],1-7[8:1],,,
4>2[8:1],4,5,6,7>2[4:1],,2>5[4:1],,5<8[32:7],,1h[4:2],,{16}E1,E2,E3,E4,E5,E6,E7,E8,
{8}1,2-5[8:1],,1,8-4[8:1],,1,2-5[8:1],,1,8-4[8:1],,2x,,2x,,7,6-4[8:1],,2,3-8[8:1],,7,6-4[8:1],,2,3-8[8:1],,7h[8:1],,7h[8:1],,
2,1-6[8:1],,5h[8:3],,,7,8-3[8:1],,5h[8:3],,,1-5[8:1],,{16}7,,,,
A6,E6,E5,A4,A3,E3,E2,A1,A6,A5,A4,A3,A2,A1,8xqq3[4:1],,,,,,,,,,1h[4:2],,,,,,,,
5,6,7,8,4,5,6,7,3,4,5,6,2,3,4,5,1,8,7,6,8,7,6,5,7,6,5,4,1h[4:1],,,,
7,8,7,8,6,8,6,8,5,1,5,1,4,2,4,2,4-8[8:1],,,,,,,,2-5[8:1],,2-7[8:1],,,,,,
4-2[8:1],,,,6-4[8:1],,6,,1-3[8:1],,1,,8-4[8:1],,8,,2>5[8:1]*q6[8:1],,,,,,,,7,,7,,8,,6,,1,,7,6,5,2,3,4,7,6,5,2,3,4,7,6,5s1[8:1],,,,,,,,28,,8h[8:2]/2,,,,1,,
1,2,3,4,5,,8,7,6,5,4,,1,2,3,4,2,3,4,5,3,4,5,6,4,5,6,7,8h[4:1],,,,
2,1,2,1,2,8,2,7,2,6,2,5,2,4,2,3,1V35[16:3],,,,,,,,7-4[8:1],,7-1[8:1],,,,,,
6x-8[16:1],,,5-1[8:1],,,4,,4h[4:1],,,,1x-7[16:1],,,2-6[16:1],,,3-5[16:1],,3,,,,7s3[8:1],,7,,,,,,
2x-4[16:1],,,1-5[16:1],,,8-6[16:1],,,4-8[16:1],,,3,,,,2h[4:2],,,,,,,,{32}
E1,E8,E7,E6,E5,E4,E3,E2,E1/D1,D8/E8,D7/E7,D6/E6,D5/E5,D4/E4,D3/E3,D2/E2,
(141){1},,
(211.5){4}6h[4:8],4h[4:8],,,,,,,,,,,,,,,3h[4:8],5h[4:8],,,,,,,,,,,,,,,
4>5[4:15],4,,,,,,,4>1[4:7],4,,,,,,,,,,,,,,,
6h[4:3],5,4,3h[8:5],,{8},4,43,,54,,5/6h[4:3],,5,,4,,3h[8:5],,,,,4,3<6[8:1]/4,,8b,,
{16}7-5[8:1],,7,,1,,1,2,3-8[8:1],,3,,6,,,,7-1[8:1],,7,,5,,4,3,2-6[8:1],,2,,8,,,,
8<5[8:1],,8,,3,,3,2,1-5[8:1],,1,,7,,,,6,,6h[8:3],,5,,5-1-7[8:2],4,3-7[8:1],,,,,,,,
2-4[8:1],,2,,8,,8,7,6-1[8:1],,6,,3,,,,2-8[8:1],,2,,4,,5,6,7,,7,,1,8,1,8,
2-5[8:1]/7,,,,2/7-4[8:1],,,,7/3-8[8:1],,,,3,,6>7[4:1],,,,,,,,,,4,,4,3,6h[8:1]/2,,,,
{24}1,2,3,4,5,6,7,8,1,2,3,4,8,7,6,5,4,3,2,1,8,7,6,5,{32}2,3,4,5,6,7,8,1,2,3,4,5,6,7,8,1,2z6[8:1],,,,,,,,,,,,,,,,
{16}8-5[8:1],,8,,2,,2,3,4-8[8:1],,4,,5-3-6-2-7-1[4:2],,,,,,,,,,,,2hx[8:4],,,,,,,,
1w5[4:2],,,,,,,,,,,,,,,,7b,3b,7b,3b,8b,4b,8b,4b,1b-5b[8:1],5b,1b,5b,Cf,,,,
2,3,4,5,6,7,8,1,26,5,4,3,2,1,8,7,6/2V48[16:3],,,,7,,6z2[8:1],,,,1,,1w5[8:1],,,,
1,,,,7,8,7,8,6,5,4,3,2,1,8,7,{24}2,3,4,5,,,1,2,3,4,,,7,6,5,4,,,8,7,6,5,,,
{16}2,1,2,1,3,8,4,7,5,6,5,6,4,5,4,5,3-8[8:1],,3,,6V42[16:3],,6,,2,,1h[4:1],,,,,,
7,1,7,1,7,1,7,1,7,1,7,1,7,1,7,1,8,2,8,2,8,2,8,2,8,2,8,2,8,2,8,2,1,1,1,1,1,1,1,1,1,1,1,1,1,1,1,1,8,8,8,8,8s4[16:4],8z4[16:3],8,8,,,,,,,,,
3,2,1,8,7,6,5,4,37,8,1,2,3,4,5,6,72,1,8,7,6,5,4,3,2/8w4[8:1],,,,,,,,
7-4[8:1]/2,,,,7/2-5[8:1],,,,2/6-1[8:1],,,,6,,3>4[8:2],,,,{24}E3,E2,E1,E8,E7,E6,E5,,,8,3,8,3,8,3,1,2,1,2,1h[24:26],2h[24:25],
{4},,,,,,8-4[8:1],,
{16}3-7[8:1]*-1[8:1],,3,,,,,,8h[8:1],,2-6[8:1],3,4,,8,,7-4[8:1],,,,4,,3-8[8:1],,,,8,,7w3[8:1],,,,
7,,,,5/1h[4:1],,,,8,1,,8,,,1,,7,6,2,3,6,5,3,4,5-1[8:1],,6,,57,,,,
8-4[8:1]*-5[8:1],,,,,,,,{32}2h[1:0],B2,,,,,6h[1:0],B6,,,,,1,,,,{16}3h[8:1]/4h[8:1],,,3h[8:1]/4h[8:1],,,34,,5-2[8:1],6,7,8,5,,,,
1,8,7,6,1,8,7,6,8,8,4,4,6,6,2,2,
{24}5,4,3,2,1,8,{32}4b,5,6,7,4b/8,51,62,73,8h[4:2]/4,5,6,7,,1,2,3,4,5,6,7,,1,2,3w7[0.6##3.7],
{1},,,,{32}E8,E7,E6,E5,E4,E3,E2,E1,D8,D7,D6,D5,D4,D3,D2,D1,
{4},,,,,,,,,,,,
E
&inote_6=(188)
{1},
{4},{24}Ch[24:8],,,,,B2,{24}B3,B6,B7,,,,{4},
{1}4x>5[4:15],,,{4},,,{32},,,,,,2x,3x,{4}4x>5[4:14],,,,,,,,,,,,1>4[4:2],,,,
4,4h[4:1],B4,,,5h[4:1],B5,,3,3h[4:1],B3,,,6h[4:1],B6,,
{16}7,1,7,1,7,1,7,1,7,1,7,1,7,1,7,1,8,8,8,8,8,8,8,8,8,8,8,8,8,8,8,8,
{24}7,6,5,1,2,3,7,6,5,1,2,3,8,7,6,2,3,4,8,7,6,2,3,4,
{32}5,,7b,,1,2,3,,8b,,2,3,4,,1b,,3,4,5,,1b,,4,5,6,7,8,1,2-6[4:5],,,,
{1},{4},,{16}5h[1:0],5h[1:0],5h[1:0],5h[1:0],5h[1:0],5h[1:0],5h[1:0],5h[1:0],
6-8[8:1]/4-8[8:1],,46,,,,,,3,1,,1,2,,38,,7,4,6,5,8h[8:1],,1,,3,4,2h[8:1],,1,2,1,2,
8q4[8:1],,,,8h[8:1],,,,6,5,,3,4,2,4,,1h[16:1],,1h[16:1],,2,8,2,8,7q3[8:1]/3,,6h[8:3]/4,,,,,,
{32}A4/D5,{64}D4,D7,A3,A7,D3,D8,A2,A8,,,,,,,{16}1,1,1,1,1,,3,4,2,,1h[8:1]/7,,6,,7,8,6,1,5,2,34,,2,1,2,,38,,
7h[16:1],,7,,6,5,6,5,8,,3,4,3,4,,1s5[4:2],,,,,,,,,,,,,,,,,
7b,,65,,34,,2h[8:1]/6,,{32}1,8,7,6,{16}5,,3,4,3,4,3,,6,5,,5,6h[8:1],,{32}4,3,2,1,8,,,,{16}56,,7h[8:1],,
3h[8:1],,5h[8:1],,1h[8:1],,4,,28,,46,,2,,6h[8:1]/4,,{32}2,3,4,5,2,3,4,5,2,3,4,5,2,3,4,5,{32}2,3,4,5,2,3,4,5,E1,,,,E5,,,,
{16}2h[4:1]/6h[4:1],,,,{64},,D3,D7,A3,A7,D4,D8,A4,A8,,,,,,,{12}1,5,7,3,5,1,
{32}7,8,{16}7,,,3,4,3,4,2,,{32}18,7,6,5,4,,,,2,,,,{16}3h[16:2]/4h[16:1],,,,6h[16:2]/5h[16:1],,,,{24}1,8,7,6,5,4,1,8,7,6,5,4,1,8,7,6,5,4,1,8,7,6,5,4,{16}2h[16:1],,,,7h[16:1],,,,
1<7[8:1],,6,,1,,5>3[8:1],,6,,7,,8>2[8:1],,2,,8,,3v8[8:1],,4,,3,,5qq1[16:3],,5,,6,,7,,
8<6[8:1],,2,,8,,1-5[8:1],,5,,1,,6>3[8:1],,2,,6,,1>3[8:1],,8,,7,,6,,5h[8:2]/4h[8:2],,,,,,
3>2-8[8:1],,7,,3,,6<7-1[8:1],,5,,4,,3-6[8:1],,2,,3,,1V35[16:3],,8,,7,,6z2[16:3],,6,,5,,4,,
3-8[8:1],,4,,5,,6,,{24}8,1,2,3,4,5,8,1,2,3,4,5,{16}1,6,1,6,8<1[16:5],7,8,7,,,,,,,,,
78,,7-3[8:1]/8,,6h[8:1],,7,,5,6,7,8,12,,1/2-6[8:1],,3h[8:1],,2,,4,3,2,1,7-4[8:1]/8-4[8:1],,,,78,,,,
65,,6v1[8:1]/5,,7h[8:1],,6,,8,7,6,5,43,,4/3v8[8:1],,2h[8:1],,3,,1,2,3,4,6-1[8:1]/5-1[8:1],,,,65,,,,
28,,37,,6,5,7h[8:1],,8,7,1,6,25,,34,,6,5,7h[8:1],,1,7,2,6,3h[16:2]/4h[16:1],,,,56,,45,,
4h[32:1],3h[32:1],5h[32:1],6h[32:1],3h[32:1],2h[32:1],6h[32:1],7h[32:1],1h[32:1],2h[32:1],8h[32:1],7h[32:1],1s5[0.95##0.34],2h[32:1],3h[8:3]/6h[8:3],,,,,,,,,,,,,,,,,,
4>8[4:1],3>7[4:1],2<6[4:1],1<5[4:1],A4,A3,A2,A1,4-8[16:2],,,,4x,,,,
1>5[4:1],2>6[4:1],3<7[4:1],4<8[4:1],A1,A2,A3,A4,1-5[16:2],,,,1x,,,,
7<3[4:1],6>2[4:1],5>1[4:1],4>8[4:1],A7,A6,A5,A4,7-3[16:2],,,,7x,,,,
2V86[16:3],3,4,5,4V68[16:3],3,2,1,8,,,,1,2,3,4,
5h[4:1]/6x,,,,6,5,7,5,8h[4:1],,,,{24}6,5,4,3,2,1,{16}8/7w3[8:1],,,,{32}B7,C,B3,,,,,,{16}1/5<8[8:1],,,,{32}1,2,3,4,1,2,3,4,
{16}15,,7,8,6,3,4,2,6,5,7,2,1,3,8,4,7h[1:0],5h[1:0],7h[1:0],5h[1:0],6h[1:0],6h[1:0],6h[1:0],6h[1:0],,,4h[4:1]/8h[4:1],,,,,,
2<6[16:3],3,4,5,6,,5-8[16:2],4,3,,4,3,2-5[8:1],,,,1,8,7,6,5>1[16:4],4>8[16:4],3>7[16:4],2<6[16:4],A5,A4,A3,A2,,,,,
4V68[16:3],3,2,1,8,,1-6[16:3],2,3,,2,3,4>1[8:1],,,,{32}E7,E6,E5,E4,E3,E2,E1,E8,D7,D6,D5,D4,D3,D2,D1,D8,{16}2hx[8:3],,6xh[8:2],,,,,,
{32}8b,7,6,5,,,7b,6,5,4,,,6b,5,4,3,E2f/A2/D2,,,,,,,,1b,2,3,4,,,2b,3,4,5,,,3b,4,5,6,A7/D8/E8f,,,,,,,,6,,,,78,,,,1,,8,,1,,8,,
2b,3,4,5,,,2b,3,4,5,,,1b,2,3,4,,,1b,2,3,4,,,D8f/A7/A8,,,,,,,,1h[4:1]/6h[4:1],,,,,,,,,,,,,,,,{24}8,7,8,7,8,7,8w4[17.34##0.28],7,8,7,8,7,
(141){1},,
(211.5)Ch[1:12]/B2h[4:1],,B3h[4:1],,B4h[4:1],,B5h[4:1],,B6h[4:1],,B7h[4:1],,,,
4h[4:13],,5h[4:5],{4},,5s1[8:1]/4z8[8:1],45,
{16}2-4[8:1],,1,,82,,7h[16:1],,7-1[8:1],,56,,47,,3,,2-6[8:1],,1,,28,,7h[16:1],,7<4[8:1],,8,,17,,2,,
3-1[8:1],,4,,35,,6h[16:1],,6-4[8:1],,78,,16,,2,,3<6[8:1],,2,,13,,8,,7h[8:3],,6h[8:2],,,,,,
8-4[8:1],,7,,28,,3h[16:1],,3>1[8:1],,4,,35,,6,,7<4[8:1],,8,,17,,2h[16:1],,2-8[8:1],,3,,4h[16:2]/2,,,,
{32}1b/A6hf[8:7]/E6h[8:7]/B6h[8:7],2,3,4,,,,,1b,2,3,4,,,,,1b,2,3,4-1b[8:1],,,,,,,,,,,,,
{16},,,,78,,78,,1,6,2,5,3h[4:1],,,,7,6,1,2,6,5,2,3,8,7,3,4,7,6,4,5,7,8,3,2,6,7,4,3,{16}12,,,38,,,47,,
65,,5,,41,,4,,53,,5,,48,,4,,D8/E8,D4/E4,D7/E7,D3/E3,D6/E6,D2/E2,D5/E5,D1/E1,Ch[8:4],,,,,,,,
4x-8[4:2],,,,,,,,,,,,,,,,8b,8b,8b,8b,8b,8b,8b,8b,8b-4b[8:1],8b,8b,8b,8b,,,,
2,1,2,1,3,5,3,5,8,7,8,7,1,6,2,5,3,3,5,4,7,7,5,6,1,1,4,3,8,4,7,5,6,6,4,4,5,5,3,3,8,2,7,3,6h[4:1],,,,
{24}1,2,3,4,5,6,78,6,5,4,3,2,18,2,3,4,5,6,78,6,5,4,3,2,{16}
8,1,8,1,7,1,6,1,5,1,4,8,4,8,4,8,{32}E4,E3,E2,E1,E8,E7,E6,E5,D4h[128:1],D3h[128:1],D2h[128:1],D1h[128:1],D8h[128:1],D7h[128:1],D6h[128:1],D5h[128:1],A3h[8:3]/E4h[8:3]/D4h[8:3],,,,E8h[8:2]/A7h[8:2]/D8h[8:2],,,,,,,,,,,,
{16}8x,4,8,4,8,4,8,4,1,5,1,5,1,5,1,5,2,6,2,6,2,6,2,6,3,7,3,7,3,7,3,7,4,8,4,8,4,8,4,8,5,1,5,1,5,1,5,1,{32}3,4,8,7,2,3,7,6,2<3[4:1],1,5,6,1,8,4,5,A2,A1,A8,A7,A6,A5,A4,A3,D3f/E3,,,,,,,,
{24}7,6,5,4,3,2,15,8,7,6,5,4,37,2,1,8,7,6,15,4,3,2,1,8,2,3,4,5,6,7,2,3,4,5,6,7,1,2,3,4,5,6,1,2,3,4,5,6,
A3h[8:1]/E3h[8:1]/A8h[8:1]/E1h[8:1]/E2f,,,,,,E6f/A4h[8:1]/E5h[8:1]/A7h[8:1]/E7h[8:1],,,,,,A6h[8:3]/B6h[8:3]/Chf[8:3]/B2h[8:3]/A2h[8:3],,,,,,,,,,,,,,,,,,17,,,32,,,
5,4,5,4,5,4,{32}53,24,13,2,1,8,7,6,{24}3,5,3,5,3,5,3,5,3,5,3,5,{16}4h[1:0],4h[1:0],4h[1:0],4h[1:0],4h[1:0],4h[1:0],4h[1:0],4h[1:0],
{4}C,,1-5[8:1],,
{16}A6h[8:2]/B6h[8:2]/E6h[8:2],,E5h[8:1]/D5h[8:1]/A4h[8:1],,,,,,37,,2,1,2,,38,,7,5,6,5,7,,3,4,3,4,3,,1,8,1,8,
E2h[8:2]/B2h[8:2]/A2h[8:2],,A5h[8:2]/E5h[8:2]/D5h[8:2],,,,,,3,4,3,4,,4,3,,7,6,7,6,7,6,7,6,8-4[8:1],5,,5,8,,,,
{48}A5/E5/E4/A3,,E3,,E2,,A1h[8:1]/E1h[8:1],,,,,,A7/E8,,E7,,E6,,A5h[8:1]/E5h[8:1],,,,,,{16}B2/C,,,78,,,12,,
D6h[8:4]/E6h[8:4]/A5h[8:4],,,E4h[16:5]/D4h[16:5]/A4h[16:5],,,E5h[8:1]/D5h[8:1],,{32},A3,A2,A1,A8,A7,A6,A5,A4,,,,,,,,
{16}7,7,5,5,4,4,2,2,{24}7b,6,5,4,3,2,1,8,7,2b,6b,2b,
{24}5,3,4,2,1,3,6,5,7,2,8,1,7,1,8,2,7,3,{24}5b-1[0.85##3.695],4b,5b,4b,5b,4b,
{1},,,,{24}2,3,4,5,6,7,{32}8b,1b,2b,3b,4b,5b,6b,,
{4},,,,,,,,,,
E
&inote_7=(188)
{1},
{4},{24}Ch[24:8],,,,,B2,{24}B3,B6,B7,,,,{4},
{1}4x>5[4:15],,,{4},,,{32},,,,,,2x,3x,{4}4x>5[4:14],,,,,,,,,,,,1>4[4:2],,,,
4,4h[4:1],B4,,,5h[4:1],B5,,3,3h[4:1],B3,,,6h[4:1],B6,,
{16}7,1,7,1,7,1,7,1,7,1,7,1,7,1,7,1,8,8,8,8,8,8,8,8,8,8,8,8,8,8,8,8,
{24}7,6,5,1,2,3,7,6,5,1,2,3,8,7,6,2,3,4,8,7,6,2,3,4,
{32}5,,7b,,1,2,3,,8b,,2,3,4,,1b,,3,4,5,,1b,,4,5,6,7,8,1,2-6[4:5],,,,
{1},{4},,{16}5h[1:0],5h[1:0],5h[1:0],5h[1:0],5h[1:0],5h[1:0],5h[1:0],5h[1:0],
6q2[8:1]/4-1[8:1],,46,,,,,,3,8,,1,2,,38,,7,4,6,5,8h[8:1],,1,,3,4,2h[8:1],,1,2,1,2,
8q4[8:1],,,,8h[8:1],,,,6,5,,3,4,2,4,,1h[16:1],,1h[16:1],,2,8,2,8,7q3[8:1]/3,,6h[8:3]/4,,,,,,
{32}A4/D5,{64}D4,D7,A3,A7,D3,D8,A2,A8,,,,,,,{16}1,1,1,1,1,,3,4,2,,1h[8:1]/7,,6,,7,8,6,1,5,2,34,,2,1,2,,38,,
7h[16:1],,7h[16:1],,6,5,6,5,8,,3,4,3,4,,1s5[4:2],,,,,,,,,,,,,,,,,
7b,,65,,34,,2h[8:1]/6,,{32}1,8,7,6,{16}5,,3,4,3,4,3,,6,5,,5,6h[8:1],,{32}4,3,2,1,8,,,,{16}56,,7h[8:1],,
3h[8:1],,5h[8:1],,1h[8:1],,4,,28,,46,,2,,6h[8:1]/4,,{32}2,3,4,5,2,3,4,5,1,2,3,4,1,2,3,4,{32}8,7,6,5,8,7,6,5,E1,,,,E5,,,,
{16}2h[4:1]/6h[4:1],,,,{64},,D3,D7,A3,A7,D4,D8,A4,A8,,,,,,,{12}1,5,7,3,5,1,
{32}7,8,{16}7,,,3,4,3,4,2,,{32}18,7,6,5,4,,,,2,,,,{16}3h[16:2]/4h[16:1],,,,6h[16:2]/5h[16:1],,,,{24}1,8,7,6,5,4,1,8,7,6,5,4,1,8,7,6,5,4,1,8,7,6,5,4,{16}2h[16:1],,,,7h[16:1],,,,
1<7[8:1],,6,,1,,5>3[8:1],,6,,7,,8>2[8:1],,2,,8,,3v8[8:1],,4,,3,,5qq1[16:3],,5,,6,,7,,
8<6[8:1],,2,,8,,1-5[8:1],,5,,1,,6>3[8:1],,2,,6,,1>3[8:1],,8,,7,,6,,5h[8:2]/4h[8:2],,,,,,
3>2-8[8:1],,7,,3,,6<7-1[8:1],,5,,4,,3-6[8:1],,2,,3,,1V35[16:3],,8,,7,,6z2[16:3],,6,,5,,4,,
3-8[8:1],,4,,5,,6,,{24}8,1,2,3,4,5,8,1,2,3,4,5,{16}1,6,1,6,8<1[16:5],7,8,7,,,,,,,,,
78,,7-3[8:1]/8,,6h[8:1],,7,,5,6,7,8,12,,1/2-6[8:1],,3h[8:1],,2,,4,3,2,1,7-4[8:1]/8-4[8:1],,,,78,,,,
65,,6v1[8:1]/5,,7h[8:1],,6,,8,7,6,5,43,,4/3v8[8:1],,2h[8:1],,3,,1,2,3,4,6-1[8:1]/5-1[8:1],,,,65,,,,
28,,37,,6,5,7h[8:1],,8,7,1,6,25,,34,,6,5,7h[8:1],,1,7,2,6,3h[16:2]/4h[16:1],,,,56,,45,,
4h[32:1],3h[32:1],5h[32:1],6h[32:1],3h[32:1],2h[32:1],6h[32:1],7h[32:1],1h[32:1],2h[32:1],8h[32:1],7h[32:1],1s5[0.95##0.34],2h[32:1],3h[8:3]/6h[8:3],,,,,,,,,,,,,,,,,,
4>8[4:1],3>7[4:1],2<6[4:1],1<5[4:1],A4,A3,A2,A1,4-8[16:2],3,2,1,4x,,,,
1>5[4:1],2>6[4:1],3<7[4:1],4<8[4:1],A1,A2,A3,A4,1-7-5-3[16:4],2,3,4,1x,,,,
8>4[4:1],1>5[4:1],2>6[4:1],3<7[4:1],A8,A1,A2,A3,8-4[16:2],1,2,3,8x,,,,
2V86[16:3],3,4,5,6>2[4:1],5>1[4:1],4>8[4:1],3>7[4:1],A6,A5,A4,A3,5,4,3,2,
1h[4:1]/6x,,,,5,2,4,3,8h[4:1],,,,{24}6,5,4,3,2,1,{16}8/7w3[8:1],,,,{32}B7,C,B3,,,,,,{16}1/5<8[8:1],,,,{32}1,2,3,4,1,2,3,4,
{16}15,,7,8,4,3,1,2,6,5,7,4,1,2,8,3,7h[1:0],6h[1:0],3h[1:0],4h[1:0],8h[1:0],7h[1:0],2h[1:0],3h[1:0],48,,4h[4:1]/8h[4:1],,,,,,
2<6[16:3],3,4,5,6,,5-8[16:3],4,3,2,1V75[16:4],,2,3,4,,3,2,1,8,7<3[16:4],6>2[16:4],5>1[16:4],4>8[16:4],A7,A6,A5,A4,,,,,
4V68[16:3],3,2,1,8,,1v6[16:3],2,3,4,5<8[16:3],,4,3,2,,{32}E2,E1,E8,E7,E6,E5,E4,E3,D2,D1,D8,D7,D6,D5,D4,D3,{16}6hx[8:3],,2xh[8:2],,,,,,
{32}8b,7,6,5,,,7b,6,5,4,,,6b,5,4,3,E2f/A2/D2,,,,,,,,1b,2,3,4,,,2b,3,4,5,,,3b,4,5,6,A7/D8/E8f,,,,,,,,6,,,,78,,,,1,,8,,1,,8,,
2b,3,4,5,,,2b,3,4,5,,,1b,2,3,4,,,1b,2,3,4,,,D8f/A7/A8,,,,,,,,1h[4:1]/6h[4:1],,,,,,,,,,,,,,,,{24}8,7,8,7,8,7,8w4[17.34##0.28],7,8,7,8,7,
(141){1},,
(211.5)Ch[1:12]/B2h[4:1],,B3h[4:1],,B4h[4:1],,B5h[4:1],,B6h[4:1],,B7h[4:1],,,,
4h[4:13],,5h[4:5],{4},,5s1[8:1]/4z8[8:1],45,
{16}2-4[8:1],,1,,82,,7h[16:1],,7-1[8:1],,56,,47,,3,,2-6[8:1],,1,,28,,7h[16:1],,7<4[8:1],,8,,17,,2,,
3-1[8:1],,4,,35,,6h[16:1],,6-4[8:1],,78,,16,,2,,3<6[8:1],,2,,13,,8,,7h[8:3],,6h[8:2],,,,,,
8-4[8:1],,7,,28,,3h[16:1],,3>1[8:1],,4,,35,,6,,7<4[8:1],,8,,17,,2h[16:1],,2-8[8:1],,3,,4h[16:2]/2,,,,
{32}1b/A6hf[8:7]/E6h[8:7]/B6h[8:7],2,3,4,,,,,1b,2,3,4,,,,,1b,2,3,4-1b[8:1],,,,,,,,,,,,,
{16},,,,78,,78,,1,6,2,5,3h[4:1],,,,7,6,5,4,32,4,5,6,71,2,3,4,65,4,3,2,{24}81,7,6,5,4,3,8,7,6,5,4,3,{16}12,,,38,,,47,,
65,,5,,51,,5,,53,,5,,58,,5,,D8/E8,D4/E4,D7/E7,D3/E3,D6/E6,D2/E2,D5/E5,D1/E1,Ch[8:4],,,,,,,,
4x-8[4:2],,,,,,,,,,,,,,,,8b,8b,8b,8b,8b,8b,8b,8b,8b-4b[8:1],8b,8b,8b,8b,,,,
2,1,2,1,3,5,3,5,8,7,8,7,1,6,2,5,3,3,5,4,7,7,5,6,1,1,4,3,8,4,7,5,6,6,4,4,5,5,3,3,8,2,7,3,6h[4:1],,,,
{24}4,3,2,1,8,7,6,7,8,1,2,3,46,7,8,1,2,3,4,3,2,1,8,7,{16}
5,6,5,6,4,5,4,5,3,4,3,4,2,3,2,3,{32}E2,E3,E4,E5,E6,E7,E8,E1,D2h[128:1],D3h[128:1],D4h[128:1],D5h[128:1],D6h[128:1],D7h[128:1],D8h[128:1],D1h[128:1],A2h[8:3]/A3h[8:3]/D3h[8:3],,,,A7h[8:2]/A6h[8:2]/D7h[8:2],,,,,,,,,,,,
{16}34,56,34,56,34,56,34,56,34,56,34,56,34,56,34,56,23,67,23,67,23,67,23,67,23,67,23,67,23,67,23,67,12,78,12,78,12,78,12,78,12,78,12,78,12,78,12,78,{32}1,2,8,7,1,2,8,7,2<3[4:1],3,7,6,3,4,6,5,A2,A1,A8,A7,A6,A5,A4,A3,D3f/E3,,,,,,,,
{24}6,7,8,1,2,3,48,5,6,7,8,1,26,3,4,5,6,7,48,1,2,3,4,5,8,7,6,5,4,3,1,2,3,4,5,6,8-4[8:1]/7,6,5,4,3,2,81,,,,,,
A3h[8:1]/E3h[8:1]/A8h[8:1]/E1h[8:1]/E2f,,,,,,E6f/A4h[8:1]/E5h[8:1]/A7h[8:1]/E7h[8:1],,,,,,A6h[8:3]/B6h[8:3]/Chf[8:3]/B2h[8:3]/A2h[8:3],,,,,,,,,,,,,,,,,,17,,,32,,,
6,4,6,4,6,4,{32}53,24,13,2,1,8,7,6,{24}3,5,3,5,3,5,3,5,3,5,3,5,{16}4h[1:0],4h[1:0],4h[1:0],4h[1:0],4h[1:0],4h[1:0],4h[1:0],4h[1:0],
{4}C,,1-5[8:1],,
{16}A6h[8:2]/B6h[8:2]/E6h[8:2],,E5h[8:1]/D5h[8:1]/A4h[8:1],,,,,,37,,2,1,2,,38,,7,5,6,5,7,,3,4,4,4,3,,1,1,1,1,
E2h[8:2]/B2h[8:2]/A2h[8:2],,A5h[8:2]/E5h[8:2]/D5h[8:2],,,,,,3,4,3,4,,4,3,,7,7,7,7,6,6,6,6,5-1[8:1],4,,4,5,,,,
{48}A8/E1/E2/A2,,E3,,E4,,A4h[8:1]/E5h[8:1],,,,,,A6/E6,,E7,,E8,,A8h[8:1]/E1h[8:1],,,,,,{16}B2/C,,,37,,,46,,
D6h[8:4]/E6h[8:4]/A5h[8:4],,,E4h[16:5]/D4h[16:5]/A4h[16:5],,,E5h[8:1]/D5h[8:1],,{32},A3,A2,A1,A8,A7,A6,A5,A4,,,,,,,,
{16}7,7,5,5,4,4,2,2,{24}7b,6,5,4,3,2,1,8,7,8b/6b,5/1,4/2,
{32}3,4,A7h[32:1],E7,A2h[32:1],E3,6,5,3,4,5,4,6,5,4,5,B6h[32:1],B7,7,8,2,1,B3h[32:1],B2,{24}1b-5[0.85##3.695],8b,1b,8b,1b,8b,
{1},,,,{24}7,6,5,4,3,2,{32}1/3b,8/2b,7/1b,6/8b,7b,6b,5b,4b,
{4},,,,,,,,,,
E
