&title=我们都在用力地活着
&artist=who
&first=0
&des=五十鈴
&des_5=
&lv_5=?
&inote_5=(132){4},,,4-1[2:1],
6x,6,6,8-5[2:1],
2,2,2,5/1>4[2:1],
6/1b,6,7,8<5[2:1],
4,3,2,1qq1[4:1]*pp1[4:1],
1b,A1f,{8}6h[8:3],5,4,4,
E2,E8,E6,E4,{4}5q1[8:1]/1q5[8:1],5>2[8:1]/1<6[8:1],
5b-1[8:1]/1b-5[8:1],5x<8[8:1]/1x>4[8:1],5b-1[8:1]/1b-5[8:1],5x/1x,
{8}8-4[8:1],1-5[8:1],8bw4b[8:1],1b,{4}8b,Ch[4:1],
{8}8,8,1/7,8,6/4,3,2/1,8,
7,{16}5,4,{8}6,1/2,{4}7h[8:1]/8h[8:1],{8}7/2-5[8:1],1,
2/7-4[8:1],8,7/1-3[8:1],8,1/8-6[8:1],{16}1,1,{8}8/2>5[4:1],1,
2/5p8[4:1],5,8<3[4:1],8,{2}6h[4:1],
{8}3xh[8:1]/B6/B5/E6,B7/B8/E8,3xh[8:1]/B1/B2/E2,B7/B8/E8,3xh[8:1]/B6/B5/E6,{16}B7/B8/E8,3x,{8}3xh[8:1]/B1/B2/E2,B7/B8/E8,
3xV15[4:1],1x-5-7[4:1],5x,7x,{4}8bx,{8}1pp1[4:1],1,
{4}1/7,{8}8qq8[4:1],8,8/2,3,4,{16}3,3,
{4}2b/8b,6b/1b,{16}3b/5bh[16:3],,,4b,{8}6b,7b/8b>4[8:3],
{4}E7,E6,E5,2<7[8:1]/6>3[1:1],
{24}2b,D1f,
E
