&title=Du Hast (Short Ver.)
&artist=Rammstein
&first=4.07
&des=speckles
&lv_5=13+
&inote_5={16}(125.1)7/4h[16:3],{8},{16}6,{8},7/4h[16:3],{16},6,{4},{8}3,
{16}1b,8,{8}1,6/5,4/3,{16}5,4,{8}5,3/6,7/2,
{16}8b,1,{8}8,3/5,2/6,{16}7,1,{8}7,{16}3,5,{8}3,
{16}8b,1,{8}8,3/6,7/4,{16}5,3,{8}5,6/3,5/2h[16:1],
{16}6b,3,{8}6,5/4,3/4,{16}7,4,{8}7,{16}2,5,{8}2,
{16}6b,1,{8}6,5/2,3/4,{16}7,8,{8}7,{16}2,1,{8}2h[16:1],
{16}8b,3,{8}8,7/4,2/5,{16}7,4,{8}7,{16}2,5,{8}2,
{16}7b,4,{8}7,{16}1,5,{8}1,{16}7,3,{8}7,{16}5,3,{8}5,
2/8b-4[2:1],{4},,,{8}1p5[8:5],
2q5[2:1],{4},,,{8}1<1[8:13],
{4}2-5[16:1],2p1[4:5],{1},{2},{8}6V82[2:1],
{4},,,{8}4p1[8:5],
7qq3[2:1],{4},,,{8}8<3<8[8:13],
{4}1-5[16:1],1V36-8[4:5],{1},{2},{4}2-5[2:1],
B8,B7,{8}B6,8,
{4}7<4[2:1],E1,B1,{8}B2,1x,
{4}2>6[2:3],2,B7,B6,
E1,B8,C,{8}8,7,
{4}6-1[2:1],B2,B3,{8}B4,2,
{4}3>8[2:1],B5,B6,{8}B7,4,
{4}5qq8[2:3],5,D1,D2,
B2,D2,B3,{8}1,1,
{1}1h[1:1]/7b-3b[1.9185##0.1199],
{8}7b,1x,{16}6/1h[8:1],5,{8}4,{16}6/1h[8:1],5,{8}4,7-4[16:1]/8-3[16:1],8/7,
{4}7/8,{16}1/6h[8:1],2,{8}3,{16}1/6h[8:1],2,{8}3,{16}7-4[16:1],8,{8}7,
7b,1h[8:1],8,5,{16}7/1h[8:1],6,{8}5,{16}7/1h[8:1],6,{8}5h[8:1],
{16}1b,2,{8}3,{16}8/1h[8:1],7,{8}6,{16}1/8h[8:1],2,{8}3,{16}8-4[16:1],7,1,6,
{8}2b/8b,2h[8:1],7,2h[8:1],{16}7,6,{8}5/2,2,5h[8:1],
{16}2,3,{8}4/7,7h[8:1],2,{16}4,5,{8}4,{16}6/2v5[16:1],7x/3x,{8}8x/4x,
2,4xh[8:1],7,4h[8:1],{16}6,7,{8}8/4h[8:1],8,8/3,
{4}8b/2>5[2:1],{16}E1,{8},{16}B7,{8},B5,,8,
{4}7<4[2:1],{16}E1,{8},{16}B2,{8},B4,,8,
{4}7V53[2:1],{16}7b/A8,{8},{16}B1,{8},E3,,1,
{4}8-4[2:1],{16}8b/E2,{8},{16}E3,{8},E1,,8-4[8:1],
1-5[8:1],8<5[8:1],{4}1>4[8:1],{8},8,8,7-4[8:1],
3-8[8:1],7-2[8:1],{4}3-6[8:1],,{8}8,7,
6/2,7/3,6/1,6h[8:1]/1h[8:1],,5h[16:1]/4h[16:1],3h[16:1]/6h[16:1],7h[16:1]/2h[16:1],
{4}1/8b-4b[1.9185##0.1199],7bh[4:1],{2}1bh[4:1],
{4}8b/1-3[16:1],{8}5x/1-7[16:1],5x,{4}5h[8:1]/1-4[16:1],{8}5/1-6[16:1],5,
{4}1/5h[8:1],{8}1,3/8h[8:1],{16}3,2,{8}1/8h[8:1],{16}1,2,{8}3,
3b/5h[8:1],8,3/6h[8:1],{16}3,2,{8}1/7h[8:1],3,{16}4/5h[8:1],4,{8},{16}8/1h[8:1],
7,{8}6,6/2h[8:1],5,{16}8/3h[8:1],7,{8}6,6/1h[8:1],7,
B3fh[1:1]/8b-4b[16:13],8,{16}8,7,{8}6,{16}8,7,{8}6,8-4b[16:1],8,
8b,1,1/6h[8:1],1,{16}1/7h[8:1],2,{8}3,{16}1/6h[8:1],2,{8}3,
B6fh[1:1]/1b-5b[16:13],1,{16}1,2,{8}3,{16}1,2,{8}3,1-5b[16:1],1,
1b,8,8/3h[8:1],8,{16}8/2h[8:1],7,{8}6,{16}8/3h[8:1],7,{8}6,
{4}6/1b-4[16:1],1/7-3[8:1],7/2-6[8:1],2/8-5[8:1],
{8}8/1-4[8:1],2,7-3[8:1],8,{4}7<4[8:1]/2pp4[8:1],7/2,
{16}8/1xv4[8:1],2,{8}3,{16}1x/8v5[8:1],7,{8}6,{16}8/2-7[8:1],3x,{8}4x,{4}2x/6h[8:1],
{16}6/1-3[8:1],5,{8}4,{16}6/1-7[8:1],5,{8}4,{16}6/1-3[8:1],5,{8}4,{4}6h[8:1]/1-4b[16:17],
{16}1/6,7,{8}8,{16}8x,7,{8}6,{16}6x,7,{8}8,8/1-4b[16:1],8/1,
1b/7/B2f,7,7/4,7,{16}3/7,6/2,{8}5/1,{16}1/5-8b[16:17],2/6,{8}3/7,
{16}5/1,2,{8}3,{16}3,2,{8}1,{16}1,2,{8}3,{16}3v8b[16:1],2,{8}1,
{32}3b/E6f,B7,{16}A8,{8},6,6,{16}6/1,5/2,{8}4/3,{16}6/1,5/2,{8}4/3,
4b/3b,8,3,7,2,{16}6,5,{8}6,7h[16:1]/5h[16:1],
{16}6x,3,5,2,6,3,7,4,6,4,{8}5,{16}6/4,7/3,{8}8/2,
{16}2/8-5[8:1],3,{8}4,{16}1/8-4[8:1],2,{8}3,{16}1/8<5[8:1],2,{8}3,{16}2/8,3,{8}4,
{16}7b/1-5[8:1],6,{8}5,{16}8/1-4[8:1],7,{8}6,{16}8/1>5[8:1],7,{8}6,{16}8/1,7,{8}6,
2b/6-8[16:1],5,{16}6/2-5[8:1],3,{8}4,{16}2/6-3[8:1],7,{8}8,6/1w5[16:1],1,
{4}1b>3[16:1],{8}1<7[8:1],6,{16}6/1>3[8:1],5,{8}4,{16}1/6x,5,{8}4,
6-1[8:1],7,6/2-5[8:1],3,{16}2/8x,7,{8}6,{16}6/4x,7/3x,{8}2h[16:1]/8h[16:1],
{16}7x,3,6,4,7,3,8,1,7,2,6,3,{8}5h[16:1],2/7,
{1}5b/Cf,
