&title=99 Glooms
&artist=sta
&first=0.01
&des=PP PAnpan
&lv_5=14+
&inote_5=(185)
{4}
,,,,
{16}4V26[16:8]/5s1[16:8],,,,,,,,,,,,,,,,7h[16:1],,,,3h[16:1]/5h[16:1],,,,1h[16:1]/2h[16:1],,,,7h[16:1]/4h[16:1],,,,5,6,4,,4-6[10:1],5,3-1[10:1],,4v7[8:1],,,,,,,,
1b,,,,6,,,,3,,5,,2,,4,,3h[12:3],,,,5,,3,,6,,4,,7,,5,,6h[12:3],,,,
4,,6,,2,,3,,4,,1,,2,,3,,8,,1,,2,,4,,3,,5,,2b
,,,,
4,,3,,6,,5,,7,,4,,6h[12:3],,,,5,,6,,3,,4,,2,,8h[64:1],,1,,,,
5,,4,,7,,6,,5,,8,,7,,6,,1,,8,,3,2,1h[16:2],,7,6,5,4,3b/8b,,,,2,,5,,4,,7,,,,56,,4h[12:3],,,,5,,4,,6,,2,,,,34,,5h[12:3],,,,2,,3,,8,,4,,7,,2,,
{12}5,4,6,5,,
38,38,,,{16}7<4[8:1]/2,,,,1bqq4[12:6],,,,,,,,5,,,,6<1[8:1],,,,2bqq5[12:7],,,,,,,,5,,,,6,,,,8bv7[8:1],,,,2bv5[8:1],,2b,,,,6bv8[8:1],,,,,,
4,3,2,1,
7,6,5,4,
8,7,6,5,
2h[64:1],1h[64:1],8h[64:1],7h[64:1],
{8}4V28[12:3],,6,,7v5[12:2],,1,,2-4[8:1],,7,,1qq5[12:6],,5,,4qq4[12:6]*<8[12:5],,,,,,,,
{16}7,,6,,4,3,2,,8,7,6,,1,,5,,24,,3,,6,,5-3[8:1],,,,7-5[8:1],,,,2,,2,,4,,
3,4,2,5,4,6,3,4,2,5,4,6,2>4[8:1],,8,,7,,6,,5-7[8:1],,4,,3,,2,8,2,,13,,24,,35,,84,,75,,6,4,5,3,4V68[12:3],,,,2,,,,3v1[12:2],,,,1,,,,8v5[12:2],,,,2,,,,3bv8[12:2],,,,4,,,,6pp4[12:6],,,,3h[16:8],,,,,,,,,,,,2,,1,,7,6,5,,3,4,2,4,3,5,4,6,5>3[8:1],,,,6,,7,,8,,12,,3,,12,,8<5[8:1],,4,3,2h[12:2],,,,4,3,2,1,8,7,6,5,34,,2,,28,,6,,17,,3,,56,,7,,4,5,3,5,1,6,1,7,2,2,8,8,3b,7h[64:1],1qq4[2:7],5<3[12:9],,,,,,,,,,,,,,,,,,,,,,,,,,,,,,,,,,,,,,,,,,,,,,,,
,,,,,,,,,,,,,,,,,,,,,,,,,,,,,{36}3b,,,2bqq4[12:16],,,{128}1bqq4[16:20],,,,,,,,,,,2?bqq4[620#2:9]*bqq4[620#2:9],{4},,,,,,,,
{16}5,6,7,8,1,2,3,4,51,2,3,4,6,7,8,1,
{24}5b,4V28[16:3],3,,,,,,,7b,6,5h[16:5],,,,,,,1b,2V46[16:3],3,,,,,,,7b,8,1h[16:5],,,,,,,
5bv8[8:1],4,3,2,,,,,,,,,{16}4bV61[12:2],,,,,,2bV47[12:2],,,,,,8bV25[12:2],,,,,,6bV84[12:2],,,,,,4,3>8[12:1],2b<7[12:1],1b<6[12:1],8b<5[12:1],,,,
4b-8[12:1],,,,,,7bV51[12:2],,,,,,2bV84[12:2],,,,,,6bq3[16:3],,,,,,5b-1[16:2],,,,,,,,8b,,,3b/5b,,,8b/2b,,,6b/4b,,,2b>5[12:2]/3b,,,,6,7,8,1,6,7,8,1,4,5,6,7,2,3,4,5,2pp7[12:4],,,,,,,,1pp6[12:4],,,,,,6,7,8pp5[12:4],,,,,,,,4,3,2,1,8,7,6,5,
{12}1h[24:1],3h[24:1],8h[24:1],2h[24:1],2h[24:1],7h[24:1],5h[24:1],6h[24:1],3h[24:1],4h[24:1],4h[24:1],2h[24:1],3<6[8:1],,,1,,,2>5[8:1],,,8,,,
{16}7,8,6,1,5,3,4,2,1,3,8,2,5,3,6,4,7h[24:1],8h[24:1],7h[24:1],8h[24:1],
{24}
6V82[16:3],1v4[8:1],6,1,6,1,,,,,,,,,,,,,
{16}7bv6[8:1],,,,1bv4[8:1],,1b,,,,8bv6[8:1],,,,,,4bv7[8:1],,3b,,2bv5[8:1],,1b,,,,6b,,7b,,,,3qq8[12:6]/4,,,,5,6,7,,8,,7-4[8:1],,,,7,,2v5[8:1],,,,8<5[8:1],,,,4,3,2,1,8,7,6,5,1,1,3,8,2,6,1,7h[16:3],,,5,6,4,5,,,2pp5[12:4],,,,8,,,,6<8[10:1],,,,64,,,,{16}2,1,3,8,4,6,5,7,8,6,1,7,4,6,3,5,2h[24:1],1h[24:1],2h[24:1],1h[24:1],
{24}
4V28[16:3],8v5[8:1],4,8,4,8,,,,,,,,,,,,,
{16}6bv1[8:1],,,,2bv3[8:1],,2b,,,,7bv5[8:1],,,,,,1,,,,2,,,,3-8[8:1]/7-4[8:1],,,
,,,,,1<6[12:3],,,,6>3[12:3],,,,3p1[12:3],,,,1,,,,5>2[12:3],,,,2<7[12:3],,,,7p2[12:2],,,,6,,,,4,,8,1,8,,6,4,5,,3,4,2,,8,1,7,6,5,4,2,3,4,5,1,2,3,4,51,62,73,84,5>2[12:3],,,,2<7[12:3],,,,7p5[12:3],,,,6,,,,1<6[12:3],,,,6>3[12:3],,,,3p6[12:2],,,,2,,,,8,,5,4,5,,3,8,1,,7,7,5,,4,5,3,2,1,8,6,7,8,1,5,6,7,8,15,26,37,48,5>2[12:2],,,,8,,,,
6,5,4,3,2,1,8,7,3,2,1,7,6,5,2,3,84,1,2,3,48,51,62,73,
{24}
8,1,2,3,4,5,7,8,1,2,3,4,6,7,8,5,6,7,4,5,6,3,4,5,
{16}
1,2,3,4,57,8,1,2,
{24}6,7,8,1,2,3,7,8,1,2,3,4,
{16}8b,,7,5,6,,3,4,3,,7,1,8,,2,1,{24}2b,3,4,5,6,7,8,1,2,3,4,5,8b,7,6,5,4,3,2,1,8,7,6,5,
{16}2,3,4b,6,7,8b,3,2,1b,7,6,5bs1[16:10],2,3,4b,,,,,,,,,,2-5[8:1],,,,,,,,,,,,
6,,4,,,,7<5[8:1],,,,1,,,,,,3,,4,,,,2>4[8:1],,,,8,,,,,,6,,5,,
7,,4,,6,,2,,4,,3,,7,,4,,6,,1,,7,,1,,2b/8b,,,,5,,6,,,,7<5[8:1]/1,,,,2,,,,,,4,,3,,,,2>4[8:1]/8,,,,7,,,,,,5,,6,,71,,2,,3,,48,,1,,2,,73,,8,,
6,5,7h[16:2],,1,2,3,4,5b/6bv1[12:3],,,,,,,,3v8[12:3],,,,,,,,5V71[12:3],,,,,,,,2V46[12:3],,,,,,,,1qq5[12:7],,,,5,,,,3,,,,4,,,,2qq5[12:7],,,,5,,,,
7,,,,6,,,,
8b,,,,6,,5-3[8:1],,,,7-5[8:1],,,,2,,2b,,,,6,,1/7V13[12:3],,,,2,,4h[8:2],,,,,,,,4,,5,,78,,16,,25,,81,,27,,36,,12,,38,,4,5,6,7,85,16,27,38,4v5[12:3],,,,,,,,6v8[12:3],,,,,,,,1v4[12:3],,,,,,,,6bv1[12:3],,,,,,,,4,3,2qq5[12:6],,,,,,,,,,,,,,7,,46,,3,,21,,8h[16:2],,5,,46,,35,,
2b,8,1,7,3,3,4,2,6,5,7,4,6,6,5,7,
4,3,2,1,7,6,5,4,6,5,4,3,
{16}
8b,2,7,3h[16:1],6,,4,1b,7,2,6h[16:1],3,,5>2[12:3],,,,,,,8,7,6,5,1,8,7,6,
{24}
2,1pp5[12:4],8,7,6,5,,,,,,,
{16}
8s4[12:3],,,,4,,,,2z6[12:3],,,,8,,,,7s3[12:3],,,,2,,,,4bV62[12:3],,,,1,,,,7pp4[12:6],,,,3h[16:8],,,,,,,,,,,,2,,8,,71,62,53,,4,,38,,16,,57,,
3,4,2b,6h[64:1],4h[64:1],7b,3,5,1b,7h[64:1],2h[64:1],5b,8,6,3b,4,2,7,1,8,4,6,5,6,3,1p8[12:3],2,8,1b,,,,7bv4[16:1],,,7b,,,2bv5[16:1],,,2bv7[20:1],,,2b>1[16:7],,,,,,,,,,,,,,,,
3,5,4,5,2b-6[12:1],,,2b/7b-1[12:1],,,5b>2[12:1]/7b,,,5bv8[12:1],,,5b,,,,4b-2[12:1],,,7b-5[12:1]/4b,,,1b-5[12:1]/7b,,,1b,,,,48,37,2b-5[12:1]/6b-1[12:1],,,,2b/6b,,,3b-8[12:1]/7b-4[12:1],,,3b/7b,,,,,,,
{24}
6/2b,3,4,5,6,7,8,1,2,3/7b,6,5,4,3,2,1,8,7,
{16}
4,6/3qq5[12:23],5/2,4/1qq5[12:22],
E
