&title=[耐] Plum-MEGAMIX
&artist=Plum
&first=0.2
&des=MWamiya
&lv_5=14+?
&des_5=MWamiya
&inote_5=
(160){4},{1},{4},,,{48}8<1[0.375##2.25],
1,{24}2,{4},,,{16},,{24},{16}4h[#1.125],
,,,{4},,,{48}1>8[2:3],
8,{24}7,{4},,,{16},,{24},{2}5h[4:1],
6h[4:1],
{8}1/8,7/2>5[4:1],6,5>2[16:3],,,,,7/8,
1/6>3[4:1],2,3<6[16:3],,,,,1/7,
6/2,5,3h[4:1],,6,7-4[8:1],8,
{4}7/1-5[8:1],1/6-1[8:1],6/4-8[8:1],4,
{8}6/1,2,6/3,4,6,4,6,4,
{4}7/3h[4:1],{8}7,2h[8:3],{4}7,7,
{8}2/4,5,2/6,7,2,7,2,7,
{4}3/8-4[8:1],3/8,3/5-8[8:1],2/5,
{8}1/7,7,2/7,2,2/5,5,{16}4,4,{8}4,
3/5,3,6/3,6,6/2,2,{16}8,1,{8}8,
{16}3,4,2,5,1,6,8,7,4,6,4,6,3,7,2,8,
{4}1bx-5b[8:1],1bx/7bx-4b[8:1],7bx/3bx-7b[8:1],3bx/1bxw5b[8:1],
{24}1bx,Cf/B1,{12}B6/B5/B4,{1},{4},,,{12},{4}1,
1,1,1,
1,1,1,1,
1b,1,1,1,
1,1,1,1,
1,1,1,1,
1h[8:1],1h[8:1],{16}8,7,6,5,4,3,2,1,
{8}8/3-5[8:1],3,7-5[8:1],7,{4}2xh[4:1],{8}4,6,
{16}1/8p6[4:1],{32},,,,1,2,{4}3h[4:1],{8},4h[8:1],5h[8:1],6h[8:1],
3-1[8:1],3,5-7[8:1],5,{4}1xh[4:1],{8}8,6,
{4}4-7[8:1],{48}4,3,{24}2h[48:13],{48},,,,,,,,,,,{16}4,5,6,7,4,3,2,
{8}1/6x,7,2/7,1,1/6,5,5/3,4,
{16}4/6,,,7,{8}7h[8:1],1,,5,4-2[8:1],6,
{16}4/5-8[8:1],,,4,5-2[8:1],,,6,5-1[8:1],,,4,5,,,6,
5,,,5,{8}4,3h[8:3],{16},,,,2,1,8,7,
{8}6/2,1,{16}8,7,8,7,1h[8:1],,,6,{8}4,5,
{16}3x-1q4[8:5],,,4,{4}3,{8},8,7,6,
5/2,2,{16}3,4,3,4,{4}2h[4:1],{8}3h[8:1],4h[8:1],
{16}5h[16:3],,,6<1[4:1],,,,,2,3,4,5,2,3,4,5,
{8}6/3-1[8:1],2,3/4-8[8:1],5,4/2-6[8:1],1,2/7-4[8:1],8,
{16}7/1pp5[2:1],,,8,{8}1,7,7,6,7-4b[8:1],8,
{16}4/7b,,,2,{8}1-5b[8:1],7,{16}1b,,,7,{8}8-4b[8:1],{16}7,1,
{32}8b,Cf,{4},,{16},,,{8}6,5,
{16}4,5,4,5,3,6,3,6,2b,7b,1b,8b,2b,7b,1,8,
2,7,2,7,3,6,3,6,4b,5b,3b,6b,4b,5b,3,6,
{8}3-1b[8:1],3,6/3b,6,8/7,8,{16}7,1,8,2,
{8}1-5b[8:1],1,1b/3,3,3/6,{16}5,4,5,4,5,4,
6,3,6,3,5,2,5,2,6,1,6,1,7,8,7,8,
6,5,6,5,7,4,7,4,8,3,8,3,1,2,1,2,
8,3,7,2,6,1,5,8,4,1,5,2,6,3,7,4,
8bx/5bx,,,3bx/8bx,,,{8}6bx/2bx,{4}1bx/8bx,{32}2,3,4,5,6,7,8,1,
{16}2,7,2,7,1,8,1,8,{24}2x,3,4,5,6,7,8,1,2,3,{12}4h[24:1],
{16}6,5,6,5,7,4,7,4,{24}6x,5,4,3,2,1,8,7,6,5,{12}4h[24:1],
{8}1-4b[8:1],1,1b/8,7,3/6,3,{16}5,2,6,1,
{8}7-4b[8:1],7,7b/3,3,2/5,2/7,{16}1/8,7,6,5,
1,2,3,6,7,8,2,3,4,6,7,8,{24}3,2,1,7,6,5,
{16}4/3,2,1,7,6,5,3,2,1,4,5,6,8,7,8,7,
{48}8bx,1x,{24}2x,{48},,{16}7,8,{48}7bx,6x,{24}5x,{48},,{16}8,7,{48}8bx,1x,{24}2x,{48},,{16}7,8,{48}7bx,6x,{24}5x,{48},,{16}8,7,
{48}8bx,1x,2x,3x,,,,,,8bxw4b[0.4688##0.2812],7bx,6x,{8}5x,{48}8bx,1x,2x,3x,{4},,{24},{4}2,
2,2,2,
2,2,2,2,
{8}2x,2x,{4}2x,{8}2x,2x,{4}2x,
{8}2,2,{4}2,{8}2,2,{4}2,
2b,2,2,2,
2,2,2,2,
{8}2,2,{4}2,{8}2,2,{4}2,
{8}2,2,{4}2,{8}2,2,{4}2,
{8}1/2h[4:1],1,{16}8,8,,1b/7h[16:3],,,{8}8,1/7,7,
8/7h[4:1],8,{16}1,1,,8b,,2,1,2,,,{8}7,
4/6h[4:1],4,{16}3,3,,6b/2h[16:3],,,{8}4,5/3,3,
5/3h[4:1],5,{16}6,6,,3b,,6,4,5,,,{8}3,
7/1-5[8:1],7,{16}6/1,6,,3/8bh[16:5],,,{8}4,2,2,
3/7-4[8:1],3,{16}7,2,,6/1,,8,7,8,,,{8}6,
2/8-4[8:1],2,{16}3/8,3,,6/1bh[16:5],,,{8}5,7,7,
6/2-5[8:1],6,{16}2,7,,8/3,,2,1,3,,6,5,7,
8/3,,,2/7,,,{8}1/6,{16}7,8,,2/5,,3,4,3,
5/2,,,3/6,,,{8}4/7,{16}2,8,,4/7,,,{8}3,
{16}6,4,7,5,,6,3,4,{8}2-5[8:1],6-1[8:1],2,6,
{16}4,,,3/7,,,{8}2/8,{16}1/8,,,2/6,,,2,2,
5,3,6,4,7,5,6,4,5,3,4,2,5,3,6,4,
7/3,,,2/8,,,{8}6/2,{16}3/5,,,4/6,,,{8}3/7,
{16}8b/2b,,,5/6,,,{8}4/3,{16}1b/7b,,,4/2,,,{8}5/6,
{16}4b/7b,,,3/2,,,{8}5/6,,6/8,1/7,2/8,
{4}3,3,3,3,
3,3,3,3,
3,3,3,3,
3,3,3,3,
3b,3,3,{32}3x,B1,B8,E8,B7,B6,E6,B5,
{4}3x,3,3,{32}3,A6,E7,B7,B8,E1,,,{4}3,
3,{32}3,B8,{16}B7,{32},B2,C,B6,{4}3,
3,3,3,3,
7b/3b-8b[8:1],3b/6b-2b[8:1],{16}4/6,,,8/3,,1,8,7,
{4}6b/4b-8b[8:1],7b/4b,{16}6,5,4,3,2,1/5,8/4,7/3,
{4}6b/2b-5b[8:1],2b/7b-3b[8:1],{16}7/1,,,8,,,7/2,3/6,
{8}5,4,{16}5,3,6,2,{8}1/7,8,{32}8,E8/E1,B7/B1,B6/B2,{8}E6/E3,
5x/3x,5/3,{16}4,4,4,4,{8}3/5-7[16:1],5/3-1[16:1],{4}3/5,
{8}8,8/2,{16}1,1,1,1,{8}2,2,{32}2,E2/E3,B1/B3,B8/B4,{8}E8/E5,
7x/5x,{16}6,5,7,3,4,2,6,5,7,3,4,1,6,5,
8,2,8,2,7,1,7,1,6,2,5,3,4,4,4,4,
{4}4b-7b[8:1],4b/1b-5b[8:1],{16}1/8,,,7/2,,3,2,1,
{4}8b/6b-2b[8:1],6b/4b,{16}3,4,5,6,7,8/4,1/5,2/6,
3/7,,,8/4,,,{8}6/2,{16}1/5,,,3/7,,,{8}4/8,
{16}4,3,2,1,4,5,6,7,4,3,2,1,{32}7,6,5,4,3,2,1,8,
{8}7/3,2/8,{16}1,1,1,1,{8}3/7,6/4,{16}5,5,5,5,
4,3,2,1,4,3,2,1,4,3,2,1,8,7,6,5,
8,7,6,5,8,7,6,5,8,1,2,3,8,1,2,3,
{32}8,7,6,5,4,3,2,1,8,7,6,5,4,3,2,1,{8}4bh[8:1],8bh[8:1],3bh[8:1],7bh[8:1],
2bh[4:1],,,1bh[8:9],{2}Ch[4:3],
{8},,,,7,7,5,5,
{16}4,6,4,6,3,7,3,7,2,8,2,8,1,7,1,7,
1,8,2,7,1,8,3,6,{8}1b/8b,7b/5b,4b/3b,7b/2b,
{16}3,6,4,5,3,6,4,5,2,7,4,5,{8}1b/8b,2b/7b,
{16}7,2,8,1,7,2,8,1,6,3,8,1,{8}5b/4b,3b/6b,
{16}7/2<7[8:1],,,3,,,{8}4,{16}5>2[8:1],,,6,,,{8}7,
{16}8<5[8:1],,,1,,,{8}2,3,4h[8:3],{32}B8,B7,B6,B5,B4,B3,B2,B1,
{8}8xh[4:1],{24},,,,,,1,2,3,7,6,5,8,1,2,7,6,5,8,1,2,
{8}3/5-8[8:1],{16}6,4,{8}5-2[8:1],{16}4,6,{8}5-1-5[4:1],{16}6,4,{4}5-7-2[4:1],
{8}2-8-5[4:1],4,5-7-2[4:1],3,2-8-5[4:1],4,5pp1[2:1],4,
3,2,1pp5[2:1],2,3,4,{4}5w1[16:3],
{16},,,,,,2,6,1V35[16:3],5,8,4,{4}1,
{16}6bh[16:3]/C,,,3bh[16:3]/C,,,{8}8bh[8:3]/Cf,{16},,,,6,5,4,3,
2h[4:1],1,8,7,6h[4:1],5,4,3,2h[4:1],1,8,7,6h[4:1],5,4,3,
{32}2h[2:1],1,8,7,6,5,4,3,1,8,7,6,5,4,{16}3,{32}1,8,7,6,5,4,3,2w6b[0.4219##0.1667]*-6b[0.4219##0.1667],1,8,7,6,5,4,{16}3,
(180){32}2,Cf,{1},,,{4},,,{16},,,{4}4,
4,{8},4,{4}4,
4,4,{8},4,{4}4,
4,4,{8},4,{4}4,
4,4,{8},4,{4}4,
{8}4x/B6,B7,4x,E1,,4x/C,4x,E5,
{4}4x,4,{8},4,{4}4,
4,4,{8},4,{4}4,
4,4,{8},4,{4}4,
{8}4x/C,B5,4x,B6,,4x/B7,4x,E8,
{4}4x,4,{8},4,{4}4,
{8}4x/B7,B6,4x,B5,,4x/C,4x,B8,
4x/B7,B6,4x,B5,4x,4x/C,4x,4x,
4x/5x,{16}6x,4x,{8}5x,{16}3x,5x,{8}4x,3x/7x,8xh[16:1]/2xh[16:1],2xh[16:1]/8xh[16:1],
{4}1bxq7[1##1],,,7<2[1.5##0.8333],
,,,2q8[1.5##0.6667],
,,,8w4[1.6667##0.1667],
,,6/2,7/1,
{32}8b,Cf,,,,,,,,,,,,,,,{8}6-1[8:1]/2-5[8:1],3/7,{4}6/2-6-4-1[8:3],
{8}2,8-5[8:1],7,8-3-6[4:1],,8,{4}1<6[8:1],
1-5[8:1],1>4[8:1],1-5[8:1],1pp5[2:1],
1,5pp1[2:1],7,1,
6p1[1.1667##0.8333],,,1<5[1.5##0.8333],
{8}2,,,4,,,{4}5p7[1.5##0.6667],
{8}4,,,1,,,{4}7w3[1.6667##0.1667],
{2}8,{4}5/1,6/8,
{32}7b,Cf,,,,,,,,,,,,,,,{8}8-5[8:1]/4-1[8:1],3/7,{4}8/4-2-5-1[8:3],
{8}4,6-1[8:1],7,6,,3,{4}8-6[8:1]/1-5[8:1],
1-3[8:1]/8-4[8:1],1-5[8:1]/8-6[8:1],8-4[8:1]/1-3[8:1],1/8qq3[2:1],
8/1,3qq6[2:1],5,4,
{16}2bx,1,8,7,6,5,4,3,2,1,8,7,6bx,5,4,3,
2bx,1,8,7,6,5,4bx,3,2,1,8,7,6bx,5,4,3,
2bx,1,8,7,6,5,4bx,3,2,1,8,7,6bx,5,4,3,
2bx,1,8,7,6,5,4,3,2bx,1,8,7,6bx,5,4,3,
{2}2bxh[8:3],{8}7-3[8:1],6/8,{4}7V13>8[8:3],
{8}7,4-1[8:1],5,4V61[4:1],,4,{4}2-4[8:1],
2-7[8:1],2-5[8:1],2-6[8:1],2-4[8:1],
{16}2,,,5x,5<2[24:5],5x,5x,5x,{4}5x,{24}B7,B8,B1,B2,{12}B3,
{16}6bx,5x,4x,3x,2x,1,8,7,6,5,4,3,2bx/C,1,8,7,
6bx/B4/B3,5,4,3,2,1,8bx/B4/B5,7,6,5,4,3,2bx/C,1,8,7,
6bx/B1,5,4,3,2,1,8bx/B2/B3,7,6,5,4,3,2bx/B4/B5,1,8,7,
6bx/C,5,4,3,2,1,8,7,6bx/B1/B2/E2,5,4,3,2bx/B5/B4/C,1,8,7,
{2}6bxh[8:3]/B4/B3/E4f,{8}1-5[8:1]/8-4[8:1],7/2,{4}1/8,
{8}6/3,{16}5,4,{8}5,{16}3,4,{8}3,{16}6,5,{4}7/4-1[8:1],
4/8-5[8:1],8/2-7[8:1],2/6-3[8:1],6/8,
{8}1-4[8:1],1-6[8:1],1-5[8:1],1-7[8:1],1-4[8:1],1-6[0.3333##0.1667],1-5b[0.3333##0.1667],1,
{32}1,Cf,,,,,,,,,,,{16}6,4,7,3,8,2,1-5[8:1],1,1,1,
{8}1,{16}4x,6x,3,6,2,7,1,7,1,7,8-2-7[2:1],8,8,8,
{4}8,7-3[4:1],3-6[4:1],6<2[8:3],
{16}D7,A7,D8,A8,D1,A1,6,7,8<5[16:3],1,2,3,{4}4-1b[8:1],
{8}4b,{16},,,,7,1,6,2,5,3,4-8b[8:1],4,4,4,
{8}4,{16}1x,7x,2,7,3,6,4,6,4,6,5-1[8:1],5,5,5,
{4}5-7[8:1],3-1[8:1],{2}4-8[8:1],
{8}7b-5b[8:1],7,7/8b-4b[8:1],8,{16}8/1b<3[4:1],2,{8}3,{32},,,,,,D5,A4,
{4}D4/E4f,{16}8,7,8,7,1,6,8,7,1,6,8,7,
{8}5h[16:1]/2h[16:1],{16}4,3,4,3,5,2,4,3,5,2,5,2,6,1,
7/8,,,6/5,,,6/1,2/5,4/3,,,4/3,,,5/2,6/1,
{8}8/7b-3b[8:1],7,7/8b-4b[8:1],8,8/1b-5b[8:1],1,2b/1,2,
{4}3b/7b,{16}2,8,2,8,1h[16:3],,,4h[16:3],,,{8}5,
{4}3/6,{16}5,3,5,3,4h[16:3],,,1h[16:3],,,{8}8,
{32}2bx/7,1,8,7,6,5,4,3,7bx,8,1,2,3,4,5,6,2bx,1,8,7,6,5,4,3,7bx,8,1,2,3,4,5,6,
{8}7bx/2bx,1bx>4[8:1]/8bx<5[8:1],,A8/D1/A1,{24},,,1x,2x,3x,4x,5x,6x,7x,8x,1x,
{8}2bxh[4:1]/6bxh[4:1],{16},,,,3,7,2,6,2,6,1-4b[8:1],7,1-6b[8:1],7,
{8}1b,1bw5b[8:1],,1b,{16},,3,7,4,6,4,6,
{4}5h[4:1],{16}3,4,3,4,{8}2/5h[8:1],2,7h[8:1]/2pp5[2:1],2,
{16}2/8,,,8,,,{8}7,{4}6,{16}8-4[8:1],1,8,1,
{4}8b,{16}3,4,2,5,8,6,1,5,2-5[8:1],6,3,7,
{4}2b,{16}8,3,7,1,5,2,6,3,5,4,6,3,
{8}2/5<8[8:1],5/2,{4}5>2[8:1],5,{16}1,1,1,1,
{24}2/1h[4:1],3,4,5,6,7,{32}8,2,3,4,5,6,7,8,{4}4bx/1,{16}6,5,6,5,
{8}4/6-3-8[16:3],4/6,{4}6,{8}4-8[8:1],5-7[8:1],4,5,
{16},,4,5,2,6,4,7,2,5,3,5,3,6,4,6,
{8}7/4-8-2[16:3],4/7,{4}4,{8}7-4[8:1],1,{4}7,
{32}1,2,3,4,5,6,7,8,1,2,3,4,5,6,7,8,{8}1-5[16:1],7-3[16:1],1,7,
{4}6bx/2bx,{16}8,8-4[0.25##0.125],8,8,8/3-1[0.25##0.125],,,3/6-1[0.25##0.125],,,{8}6/2,
{4}7bx/3bx,{16}5,5-1[0.25##0.125],5,5,5/2-5[0.25##0.125],,,2/7-4[0.25##0.125],,,{8}7,
{16}2bx,2,4,4,5bx,5,7,7,2bx,2,4,4,5bx,5,7,7,
1bx,1,3,3,8bx,8,6,6,2bx,2,4,4,6bx,6,8,8,
{4}5x,5x,{8},5x,{4}5x,
5x,5x,{8},5x,{4}5x,
5x,5x,{8},5x,{4}5x,
5x,5x/Cfh[4:3],{8},5x,{4}5x,
5bx/B2/B3,5,{8},5,{4}5,
5,5,{8},5,{4}5,
5,5,{8},5,{4}5,
5,5/Ch[4:3],{8},5,{4}5,
{8}5,6,7,8,,2,8-6[8:1],1-3[16:1],
8-5[8:1],1-4[32:3],8,1,,5/4,{4}7/2,
{8}5-1[8:1],6-8[8:1],5,6pp1[8:3],,2/6,3,4qq1[8:3],
,8,1qq4[8:3],8,6,6,5,5,
7-4[8:1],8-3[8:1],7,8,,6,7-5[8:1],8-2[8:1],
7-3[8:1],8-4[8:1],7,8,,6/5,{4}2/8<5[8:1],
{8}8/1,2,4,3,,4/7,{16}5-1[8:1],6,{8}5,
4-8[8:1],3,4/5,6,,1,{4}3/7,
{8}5-2[8:1],5-8[8:1],5,5,,3/1,2/8-4[8:1],1/7,
8-5[8:1],6,8,2,,8/3,{4}2/6,
{8}1-4[8:1],1-6[8:1],1,1qq5[8:3],,1,2,3pp8[8:3],
,3/7,8pp5[2:1],7,6,6,5,5,
7-2[8:1],7-4[8:1],7,7,,6/8,7/1-6[8:1],8/2,
1-4[8:1],3,1,7,,5/4,{4}7/2>5[8:1],
{8}2/1,8,7,7-4-6[16:3],,7/1,{4}2>5[8:1],
{8}2/1,8,7,7-5-1[16:3],,7/1b,{4}2b>5[8:1],
{8}2/1,8,7,7-4[8:1],,7/8,1,{16}2x,3x,
{8}4xh[4:1]/6-8[8:1],6,6,{16}3x,2x,{8}1xh[4:1]/7-5[8:1],7,7,{16}2x,3x,
{8}4xh[8:1],5h[8:1],6h[8:1],5h[8:1],3h[4:1],{16},,,,5,4,
{8}6-1[8:1],{16}5,4,{8}6,3,7/2,8/1,2/7,6/3,
6h[8:1],5h[8:1],4h[8:1],3h[8:1],5h[4:1],{16},,,,6,7,
{8}8h[4:1]/2-4[8:1],2,2,{16}7,6,{8}5h[4:1]/3-1[8:1],3,3,{16}6,7,
{8}8h[8:1],1h[8:1],8h[8:1],7h[8:1],6h[4:1],{16},,,,7,8,
{8}6/1,6/1,2/5,{16}3,4,{8}5/2,5/2,1-5b[8:1],2,
1b/8b-4b[8:1],7,8b/1b-5b[8:1],2,1b/7bh[4:1],{16},,,,4,5,
{8}3h[4:1],6,6,{16}3,4,{8}2h[4:1],5,5,{16}8,1,
{8}7h[4:1],5,3h[2:1],8,1h[4:1],{16},,,,3,4,
{8}2h[8:1],{16}6,5,{8}7h[8:1],1h[8:5],8,2,4,6,
8,8h[4:1],3,3h[4:1],5-1[8:1],{16},,,,2,8,
{8}4h[4:1],7,7,{16}4,6,{8}2h[4:1],5,5,{16}8,1,
{8}6h[8:1],{16}4,5,3,6,2,7,{8}1h[4:1],{16},,,,7,8,
{8}6h[4:1],4,4,{16}6,4,{8}7h[4:1],2,2-6[8:1],1,
6/2<7>2[4:1],7,2x>6[16:3],{48}D8,A8,D1,A1,D2,A2,D3,A3,D4,A4,D5,A5,D6,A6,,,,,,,,,,,{16}1x/2x,8x/3x,
{2}7xh[4:1]/4xh[4:1],6h[4:1],
5h[4:1],{8}4h[4:1],,,6,
5b/7bh[4:1],,,3,2b/4bh[4:1],,,1,
{2}8b/2bh[4:1],{16}7b,8,7,8,7>5[4:7],8,7,8,
{1}7b,
{4},,,,6,
6,6,6,
6,6,6,6,
6,6,6,6,
6,6,6,6,
6,6,6,6,
6,6,6,6,
{8}6q2[4:3],,,4,,,{4}2q7[4:3],
{8},8,,,{4}7qq5[2:1],3,
{8}5<8[4:3],,,2,,,{4}8q5[8:5],
{8}3,,,5<8[8:5],,,{4}2,
{8}8q4[4:3],,,3,,,{4}4q1[1:1],
{8}3,,,2,,,{4}1w5[8:5],
,,,,{2}5w1[12:1],
{24}7,6,5,4,3,2,1/4,5,6,7,8,1,
{8}2/6,6>3[8:1],,8,{4}8<5[8:1],{8}3,3>8[8:1],
,7,{4}7<4[8:1],7-3[8:1],7,
{8}4,4<7[8:1],,2,{4}2>5[8:1],2-6[8:1],
{8}2,,,8,{4}8-4[8:1],8w4[8:1],
{32}8,Cf/B8,{16}B5/B4/B3,,,,,{8}1h[8:3],,8,7,6,
{16}4,5,2,6,4,7,3,4,1,6,8,5,7,4,6,3h[16:3],
{8}5,4<7[8:1],,1,{4}1>4[8:1],1-5[8:1],
{8}1/7h[8:3],,,8,{4}8-4[8:1],8-5[8:1]*-3[8:1],
{8}A8f,,,4/6h[8:1],2,5/3h[8:1],7,4/6h[8:1],
{4}1-3[8:1],1/8-4[8:1],8/7-5[8:1],7/1-5[8:1]*-4[8:1],
1,{16}6,7,{8}8h[16:5],{16},,,5,4,3,{8}2,
{16}8,1,7,2,8,1,7,2,8,1,6,3,5,4,7,2h[16:3],
{8}6,5>2[8:1],,7,{4}7<3[8:1],{8}2,2<7[8:1],
,5,{4}5>2[8:1],5<8[8:1],5w1[16:23],
{1}5h[2:1],
{4}5bw1b[8:1],{16},,,,,,,,1V35[16:3],8,2,7,
{8}1,,,7,{4}8-4[8:1],8<3[8:3],
{8}8,,,1,{2}2h[2:1],
{8}7-4[8:1],,,2,{4}1<6[8:1],1-5[8:1],
{2}1`Cf,{4}6-8[8:1],6/4-2[8:1],
{8}5h[4:1],,,1,{4}7>2[8:1],7p3<6[2:1],
,,2,{8}8-3[8:1]/1>3[8:1],7,
{4}8<6[8:1]/1-6[8:1],8-3[8:1]/1>3[8:1],8<6[8:1]/1-6[8:1],8/1>6z2[8:5],
1/8,,,8-5[8:1]*-3[8:1],
{8}A8f,,,1,{4}2>5[8:1],2/6-1[8:1],
{8}6/3h[4:1],,,8,{2}7h[4:1],
{8}5-2[8:1],,,1,{4}8<5[8:1],8w4[8:1],
{2}8,{4}7-5[8:1],7/8-4[8:1],
{8}8/2h[4:1]`Cf,,,6,{4}5-1[8:1],5<4[2:1],
{2}5,{4}7,{8}1/8,2,
{4}1-4[8:1]/8-5[8:1],1/8/Cf,1-5[8:1]/8-4[8:1],1/8/Cf,
{8}1/8,,,1/8,{4}2/7,{16}8V64[16:3],1,7,2,
{8}8,,,2,{4}1-5[8:1],1>6[8:3],
{8}1,,,8,{2}7h[2:1],
{8}2-5[8:1],,,7,{4}8<5[8:1],8-4[8:1],
{2}8`Cf,{4}3-1[8:1],3/5-7[8:1],
{8}4h[4:1],,,8,{4}2<7[8:1],2q6>3[2:1],
,,7,{8}1-6[8:1]/8-6[8:1],2,
{4}8-3[8:1]/1-3[8:1],1-6[8:1]/8-6[8:1],8-3[8:1]/1-3[8:1],1/8<3s7[8:5],
8/1,,,1-4[8:1]*-6[8:1],
{8}A1f,,,8,{4}7<4[8:1],7/3-8[8:1],
{8}3/6h[4:1],,,1,{2}2h[4:1],
{8}4-7[8:1],,,8,{4}1>4[8:1],1w5[8:1],
{2}1`Cf,{4}2-4[8:1],2/1-5[8:1],
{8}1/7h[4:1],,,3,{4}4-8[8:1],4>5[2:1],
{2}4,{4}2,{8}8/1,7,
{4}8-4[8:1]/1-5[8:1],8/1`Cf,8-5[8:1]/1-4[8:1],8/1`Cf,
{8}8/1,,,8/1,{2}7/2h[2:1],
{4}7,7,7,7,
7,7,7,7,
7,7,7,7,
7,7,7,7,
7b,7,7,7,
7,7,7,7,
7,7,7,7,
7xh[8:1],7xh[8:1],{16}6x,5x,4x,3x,2x,1x,8x,7x,
{8}6x/2h[4:1],4,6h[4:1],4,2h[4:1],4,6h[4:1],8,
1h[4:1],7,8h[4:1],2,3h[8:1],4h[8:1],5h[8:1],6h[8:1],
1h[4:1],7,6h[4:1],3,{16}4,5,{8}4,3h[8:1],2h[8:1],
1h[4:1],8,7h[8:1],2,1/8h[8:3],1,2-5b[8:1],2,
{4}2b/6b-1b[8:1],6b/3b-8b[8:1],3b/7b-4b[8:1],7b/1b-5[8:1],
{8}1/8-4[8:1],7,8/1-5[8:1],2,1/8v6[8:1],7,8/1-5[8:1],2,
{4}1-6[8:1]*-4[8:1],1<6[8:1],{16}1,2,{8}3,5-1[8:1],3,
{4}5/4-8[8:1],4/6,{8}7/3,7/3,2/8,2/8,
{4}7/1-4[8:1],7/1-5[8:1],8/1-3[8:1],8/1,
1/7,6/2qq4[8:3],{8}5,5,6,6,
{4}2/8<4[8:1],8/1>3[8:1],{16}8,7,{8}6h[8:1],4-8[8:1],5,
{4}4/6-1[8:1],6/3,{8}2/7,7/2,3/6,3/6,
{4}4/6-1[8:1],3/6-4[8:1],2/6-8[8:1],{8}6/3-1[8:1],4,
{4}3/5-7[8:1],{8}5/1pp4[8:3],2,8/1,8,6-2[8:1],6,
{4}6/3-8[8:1],3/7<5[8:1],{16}8x/7,1,{8}2h[8:1],4,3,
{4}5h[2:1]/2h[8:1],2h[8:1],{16}2,1,8,7,6,5,4,3,
2/6,7,8,7,{8}6/1,5,2,4,3,{16}5,2,
4,3,4,3,{8}5/2,6,3h[8:1],{16}5,4,3,2,1,8,
7/4,5,6,5,{8}7/4,3,8,2,3/8,{16}1,2,
8,7,6,5,8,7,6,5,8,7,6,5,4,3,2,1,
8/3,2,1,2,{8}3/8,4,7,5,6,{16}4,7,
5,6,5,6,{8}4/7,3,6h[8:1],{16}4,5,6,7,8,1,
2/5,4,3,4,{8}2/5,6,1,7,6/1,{16}8,7,
1,2,3,4,1,2,3,4,1,2,3,4,5,6,7,8,
1/6,7,8,7,{8}1-5[8:1],7,1,7h[8:1],4h[8:1],{16}6,5,
4,3,2,1,{8}8/3<5[8:1],6,3,{16}7,8,1,2,3,4,
5/2,3,4,3,{8}5-1[8:1],3,5,3h[8:1],7h[8:1],{16}1,8,
{24}2,3,4,7,6,5,1,2,3,8,7,6,1/5h[8:3],2,3,4,,6,7,8,1,2,{48},,,,{16}6,
4,5,3,{8}6-1[16:1],4-1[16:1],6,4,7h[8:1],{16}2,3,
4,5,6,7,{8}8/6>3[8:1],2,6,{16}2,1,8,7,6,5,
4/7,6,5,6,{8}4-1[8:1],6-1[8:1],4,6,2h[8:1],{16}8,1,
{24}7,6,5,4,3,2,1,8,7,6,5,4,1,2,3,4,5,6,7,8,1,2,3,4,
{4}5/8x,8x,8x,8x,
8x,8x,8x,8x,
{16}8x,8x,8x,8x,{4}8x,{16}8x,8x,8x,8x,{4}8x,
{16}8x,8x,8x,8x,{4}8x,{16}8x,8x,8x,8x,{4}8x,
8bx,8x,8x,8x,
8x,8x,8x,8x,
{16}8x,8x,8x,8x,{4}8x,{16}8x,8x,8x,8x,{4}8x,
{16}8x,8x,8x,8x,{4}8x,{8}8x,8x,8x,8x,
{4}8x>2[4:1],2x>4[4:1],4x<6[4:1],6x<8[4:1],
8x>2[4:1],2x>4[4:1],4x<6[4:1],6x<8[4:1],
8x>3[4:1],3x<6[4:1],6x<1[4:1],1x>4[4:1],
4x<7[4:1],7x>2[4:1],2x>5[4:1],5x<1[4:1],
1bx>5[4:1],5x<1[4:1],1x>5[4:1],5x<1[4:1],
1x>5[4:1],5x<1[4:1],1x>5[4:1],5x,
{8}1x,2x,3x,4x,5x,6x,7x,8x,
{16}1x,2x,3x,4x,5x,6x,7x,8x,{32}1x,2x,3x,4x,5x,6x,7x,8x,1x,2x,3x,4x,5x,6x,7x,8x,
{2}1xh[1:1]/5xh[4:1],5h[4:1],
{4}6h[8:5],{8}4,4,,3,,6,
{2}7h[1:1]/4h[4:1],2h[4:1],
{4}1h[8:5],{8}6,6,,8,,1,
{2}2h[1:1]/8h[4:1],7h[4:1],
{4}8h[8:5],{8}1,1,,3,,3,
{2}4h[4:1]/5h[4:1],{8}4/5h[8:3],4,4,3,
,1b,8b-4b[8:1],1b-5b[16:1],8b-6b[16:1],1b-3b[16:1],8b,1b,
5x-7[8:1],4,4/5,4,3/8-6[8:1],3,3/8,3,
{4}3-7-3[4:1],{8}3,1-6[8:1]*-4[8:1],,1,,3,
8/2-5[8:1],8,8/2,8,7/4-1[8:1],7,7/4,7,
{4}7-3-7[4:1],{8}7,8w4[8:1],,8,,2,
6/1h[8:1],6,6/3h[8:1],6,6/5h[8:1],6,6/7h[8:1],6,
1/6h[8:1],1,1/4h[8:1],1,1/2h[8:1],1,1/8h[8:1],1,
{16}1,7,3,6,4,8,2,1,3,5,4,7,8,6,1,5,
{24}8,7,8,7,8,7,8,7,8,7,8,7,8,7,8,7,8,7,8,7,8,7,8,7,
{2}8,{8}2/8,2/8,7/1V35[16:3],1/7,
1,8-3[8:1],,8/4>1[8:1],{24},,,4/8v3>7[4:1],7,6,{8}5,4/8,
5,6-2[8:1],,6<1[8:1],{24},,,6/2x,3,4,{8}5,4/8x,
{4}6-1-5[4:1]/2-5-1[4:1],6/2,{8},4qq8[8:3]/8qq4[8:3],,4/8,
,,,,1/5,5/1,4/8v5[8:1],8/4,
8,3-8[8:1],,3/5<8[8:1],{24},,,5/1,2,3,{8}4-1[8:1],6,
{4}4/7-3[8:1],{8}7/8,1,{24},,,1,2/8,3/7,{8}4/6,5,
6/4,8,5/3,1-5[8:1],,1qq4[8:3],,1,
,,,,7/1,7/1,2/8V64[16:3],8/2,
8,1-6[8:1],,1/5<8[8:1],{24},,,5/1v6<2[4:1],2,3,{8}4,5/1,
4,3-7[8:1],,3>8[8:1],{24},,,3/7x,6,5,{8}4,5/1x,
{4}3-5-2[4:1]/7-1-6[4:1],3/7,{8},1/5w1[8:1],,5,
,,,,7/3,3/7,2/6v3[8:1],6/2,
6,1-4[8:1],,1/7<4[8:1],{24},,,7/3,2,1,{8}8-5[8:1],3,
{4}8/4-8[8:1],{8}4/6,5,{24},,,5,4/6,3/7,{8}2/8,1,
{4}1-5-3[16:3],{8}1/7,8-4[8:1],,8,,8/1,
{2}2h[4:1]/7h[4:1],{8}2/8,2/8,1/7,1/7,
{16}8,7,6,5,1,2,3,4,7,6,5,4,3,2,1,8,
2,3,4,5,1,8,7,6,3,4,5,6,7,8,1,2,
6,4,6,4,8,2,8,2,6,3,6,3,8,1,8,1,
7,6,5,4,3,2,1,8,{4}2h[8:1]/7h[8:1],8h[8:1]/1h[8:1],
{16}2,7,3,6,4,5,4,5,3,6,2,7,1,8,1,8,
2,7,3,6,2,7,2,7,3,8,2,7,1,6,1,6,
2,3,4,5,6,7,8,1,6/2,5,4,3,2,1,8,7,
3,5,3,5,4,6,4,6,{4}3h[8:1],2h[8:1]/7h[8:1],
{16}2,3,4,5,7,6,5,4,2,1,8,7,6,5,4,3,
8,7,6,5,2,3,4,5,8,1,2,3,4,5,6,7,
2,1,2,1,3,8,4,7,5,6,4,7,3,8,3,8,
2,1,2,1,4,7,{8}2h[8:1],,3h[4:1],,4,
5/4,5,5/6,6,6/7,7,7/8,8,
8/1,1,1/8,8,8/1,1/8,1/8,1/8,
{16}2,7,2,7,2,7,2,7,1,8,1,8,1,8,1,8,
1,1,1,1,1,1,1,1,1,1,1,1,1,1,1,1,
{4}1x,1x,1x,1x,
1x,1x,1x,1x,
{16}1x,8x,1x,8x,{4}2x,{16}8x,1x,8x,1x,{4}7x,
{16}2x,7x,1x,8x,{4}2x,{16}7x,2x,6x,3x,{4}5x,
4x,4x,4x,4x,
4x,4x,4x,4x,
{16}4x,5x,3x,6x,{4}4x,{16}5x,4x,6x,3x,{4}5x,
{16}6x,4x,5x,3x,{4}4x,{16}3x,5x,4x,6x,{4}5x,
6x-4[16:1],6x,6x-8[16:1],6x,
2x-4[16:1],2x,2x-8[16:1],2x,
{16}5x-7[16:1],4x,5x,4x,{4}5x,{16}5x-3[16:1],6x,5x,6x,{4}5x,
{16}1x-3[16:1],8x,1x,8x,{4}1x,{16}1x-7[16:1],2x,1x,2x,{4}1x,
3x-5[16:1],3x,3x-1[16:1],3x,
7x-5[16:1],7x,7x-1[16:1],7x,
{16}3x-1[16:1],5x,4x,6x,{4}3x,{16}6x-8[16:1],4x,5x,3x,{4}6x,
{16}2x-4[16:1],8x,1x,7x,{4}2x,{8}1x-5[8:1],1x,1x/8x-4[8:1],8x,
{1}8x`Cf,
E
