&title=绝体绝命
&artist=EGOIST/M2U
&first=3.34
&des=ALAN
&lv_7=缓
&inote_7=(35)
{2},,
{128}1/8h[16:1],,,,,,,,2h[8:1],,,,,,,,D3,E4,D5,,,,,,6,,,,,,,,8/1h[16:1],,,,,,,,7h[8:1],,,,,,,,D7,E6,D5,,,,,,3,,,,,,,,
{96}4pp1[4:1]/5qq8[4:1]b,,,,,,,,,,,,1h[16:1]/8h[16:1],,,,,,,,,D2/D8,D3/D7,D4/D6,
{96}D5f,,,,,,,,,,,,,,,,,,,,,,,,,,,,,,,,,,,,,,,,,,,,,6,5h[24:5],3,
{64}4h[16:3],,,,,,,,,,,,,,3/6,2/7,
{96}1h[32:3]/8h[32:3],,,,,,,,,,E1,C,E5,,,,,,,,,,,,
{128}6/A2,A3,A4,,7,,,,8,,,,,,,,7/E2,E3,E4,,8,,,,1,,,,,,,,8qq5[8:1]/A7,A6,A5,,1,,,,2,,,,,,,,1pp4[8:1]/E8,E7,E6,,2,,,,3,,,,,,,,
{32}8,,,1,1,,,,5h[4:1],E4,E3,E2,E1,E8,E7,E6,4-1[16:1]*<5-8[16:1],,,,1-3<4-6<7-1<1[16:5]/8-6>5-3>2-8>8[16:5],,,,A4/A5/D5,,,,,,,,,,,,,,,,
{128}1s5[16:1]/8,2/7,3/6,4/5h[128:13],,,,,4,,,,,,,,3,,,,,,,,2,,,,,,,,1/5-1[32:1],,,,,,,,8,,,,,,,,4h[16:1]/7,,,,,,,,6,,,,,,,,
{64}4/5,,,,,,8,,4h[64:3]/8-3[32:1]*-5[32:1]b,,7,7,,,6,,1-4[32:1]b*-6[32:1]/5h[64:3],,2,2,,,3,,8,,,,2/7,,,,
{32}1b,,,5,4/5,,3/6,,1-5[32:1]/8,,2/3,,4/5-3-1<1[4:1]*-7-1>1[4:1],,6/7,,1b,,,,5b,,,,,,,,C,,C,,
{96}8z4[16:1]/4h[16:1],,,,,,7,6,5,2,3,4,6,,,,,,7,,,,,,8/4-8[32:1],,,,,,1,,,,,,5h[16:1]/2,,,,,,3,,,,,,
{64}4/6,,,,,,5,,3-7[32:1]/5,,,,4/6-2[32:1],,,,1s5[32:1]/8z4[32:1],,2,7,3,6,4,5,3,,,,6,,,,
{96}1/8,,,,,,4,3,2,8,7,6,5/4,,,,,,6/3,,,,,,8-4[32:1]/1,,,,,,7/6,,,,,,5/4,,,,,,3/2,,,,,,8b,,,,,,3,,,2b/5,,,,,,6,,,4/7b,,,,,,
{128}1h[4:1],,,,E2,,,,E3,,,,E4,,,B4,E5,,,,E6,,,B6,E7,,,,E8,,,,
{128}8b,,,,1,,,,8,,,,,,,,7/B4,E5,,,,,,,6,,,,,,,,4/5,,,,5,,,,4,,,,,,,,3/B5,E5,,,,,,,2,,,,,,,,
{32}1-5[32:1],8,7-3[32:1],,4-8[32:1]b/8,,2/6,,1,,7,,4b,,,,
{256}1/5h[32:1],,,,,,,,2,,,,,,,,6,,,,,,,,7,,,,,,,,3/D8,A8,E1,E2,,,,,4,,,,,,,,1,,,,,,,,5,,,,,,,,8/4h[32:1],,,,,,,,7,,,,,,,,3,,,,,,,,2,,,,,,,,6/D2,A1,E1,E8,,,,,5,,,,,,,,8,,,,,,,,4,,,,,,,,
{32}1-6[32:1]/5-2[32:1],,6,3,3-8[32:1]/7-4[32:1],,4/8,,1/5,,,,3/7,,,,
{128}8/1,,,,8,,,,1,,,,8,,1,,2/B5,E5,,,2,,,,3,,,,3,,,,5/4,,,,4,,,,5,,,,4,,5,,6/B4,E5,,,6,,,,7,,,,7,,,,
{32}8-3[32:1],1,2-7[32:1],,5w1[32:1]b,4/6,3/7,,8,,2,,5b,,,,
{256}1/8,,,,,,,,1,,,,1,,,,8,,,,,,,,7,,,,,,,,6/A2,E3,B3,B4,,,,,6,,,,,,,,5,,,,,,,,4,,,,,,,,5/4,,,,,,,,5,,,,5,,,,4,,,,,,,,3,,,,,,,,2/A6,E7,B7,B8,,,,,2,,,,,,,,1,,,,,,,,8,,,,,,,,
{32}2qq7[16:3]/7,,,3/6,3/6,,4/5,,2/7,E7,E6,E5,E4,E3,Ch[16:1],,1h[8:1],,,,7h[8:1],,,4,3h[8:1],,,,5h[16:5],,,,
{128}1,2,3,4,,6,7,8,1,2,3,4,,6,7,8,1,2,3,4,,6,7,8,1,,,,8-4[32:1],,,,
{128}1/7h[16:1],,,,,,,,2,3,4,5,6,7,8,1,2-5<6[32:1]b*-6[32:1]/6h[32:3],,,,,,,,7-4>3[32:1]b*-3[32:1],,,,8,,,,1,,,,1,,,,8,,,,,,,,2b,,,,,,,,7b,,,,,,,,
{128}8/2h[16:1],,,,,,,,E7,B6,B5,E5,E3,B3,B4,E5,8-3[32:1]b*-5[32:1],,,,,,,,1-4[32:1]*-6[32:1]b,,,,2,,,,3/7,,,,6,,5,,6,,3,,4,,3,,8b,,,,,,,,1b,,,,,,,,
{128}2h[16:1]/4,,,,,,,,5,6,7,8,1,2,3,4,5-1[32:1]/6-1[32:1],,,,,,,,3-8[32:1]/4-8[32:1],,,,2,,2,,1,,,,8,,,,7,,,,7,,,,5/6,,,,,,,,3/4,,,,,,,,
{128}1-6[32:1]b/7,,,,,,,,7-4[32:1]b,6,5,4,3,2,1,8,7/5-2[32:1]b,,,,,,,,3-8[32:1]b,,4,,2,,,,1x,,,,8,,,,7x,,,,6,,,,5x,,,,4,,,,3x,,,,2-6[32:1],,,,
{128}1h[16:1]/7h[32:1],,,,,,,,7,8,1,2,3,4,5,6,7-3[32:1]b,,,,8,,,,1-5[32:1]b,,,,2,,,,,,,,,,,,2,6,2,,,,,,7/8,,,,,,,,1/8,,,,7-3[32:1],,,,
{128}8h[16:1]/2h[32:1],,,,,,,,2,1,8,7,6,5,4,3,2-6[32:1]b,,,,1,,,,8-4[32:1]b,,,,7,,,,,,,,,,,,7,3,7,,,,,,2/1,,,,,,,,8/1,,,,,,,,
{128}7h[16:1]/5,,,,,,,,4,3,2,1,8,7,6,5,4-8[32:1]/3-8[32:1],,,,,,,,6-1[32:1]/5-1[32:1],,,,7,,7,,8,,,,1,,,,2,,,,2,,,,4/3,,,,,,,,6/5,,,,,,,,
{96}2/8,,,3,5,4,6,,,1/7,,,
{64}7,5,6,6,2,4,3/Cf,,
{96},,,,,,,,,,,,,,,,,,3,4,5,6,7,8,
{48}1-5[16:5],,,,,7,4,,4,5,,5,1-5[32:1]b,,2,5,,5,4,,4,
{32}7,8,1,,
{64},,1,,5h[64:3]/1-6[32:1]*-4[32:1]b,,2,2,,,3,,8-5[32:1]b*-3[32:1]/4h[64:3],,7,7,,,6,,1,,,,7/2,,,,
{32}8b,,,4,5/4,,6/3,,8-4[32:1]/1,,7/6,,5/4-6-8>8[4:1]*-2-8<8[4:1],,3/2,,8b,,,,4b,,,,,,,,C,,C,,
{96}1s5[16:1]/5h[16:1],,,,,,2,3,4,7,6,5,3,,,,,,2,,,,,,1/5-1[32:1],,,,,,8,,,,,,4h[16:1]/7,,,,,,6,,,,,,
{64}5/3,,,,,,4,,6-2[32:1]/4,,,,5/3-7[32:1],,,,8z4[32:1]/1s5[32:1],,7,2,6,3,5,4,6,,,,3,,,,
{96}8/1,,,,,,5,6,7,1,2,3,4/5,,,,,,3/6,,,,,,1-5[32:1]/8,,,,,,2/3,,,,,,4/5,,,,,,6/7,,,,,,1b,,,,,,6,,,7b/4,,,,,,3,,,5/2b,,,,,,
{128}8h[4:1],,,,E8,,,,E7,,,,E6,,,B5,E5,,,,E4,,,B3,E3,,,,E2,,,,
{128}1b,,,,8,,,,1,,,,,,,,2/B5,E5,,,,,,,3,,,,,,,,5/4,,,,4,,,,5,,,,,,,,6/B4,E5,,,,,,,7,,,,,,,,
{32}8-4[32:1],1,2-6[32:1],,5-3[32:1]*-7[32:1]b/1,,7/3,,8,,2,,5b,,,,
{256}8/4h[32:1],,,,,,,,7,,,,,,,,3,,,,,,,,2,,,,,,,,6/D2,A1,E1,E8,,,,,5,,,,,,,,8,,,,,,,,4,,,,,,,,1/5h[32:1],,,,,,,,2,,,,,,,,6,,,,,,,,7,,,,,,,,3/D8,A8,E1,E2,,,,,4,,,,,,,,1,,,,,,,,5,,,,,,,,
{32}3-1[32:1]/4-8[32:1],,1-5[32:1],6,6/5pp8[16:1],,8/1,,3/4,,,,5,,,,
{128}1/8,,,,1,,,,8,,,,1,,8,,7/B4,E5,,,7,,,,6,,,,6,,,,4/5,,,,5,,,,4,,,,5,,4,,3/B5,E5,,,3,,,,2,,,,2,,,,
{32}1-6[32:1],8,7-2[32:1],,4w8[32:1]b,5/3,6/2,,1,,7,,4b,,,,
{256}8/1,,,,,,,,8,,,,8,,,,1,,,,,,,,2,,,,,,,,3/A7,E7,B6,B5,,,,,3,,,,,,,,4,,,,,,,,5,,,,,,,,4/5,,,,,,,,4,,,,4,,,,5,,,,,,,,6,,,,,,,,7/A3,E3,B2,B1,,,,,7,,,,,,,,8,,,,,,,,1,,,,,,,,
{32}7pp2[16:3]/2,,,6/3,6/3,,5/4,,7/2,E3,E4,E5,E6,E7,Ch[16:1],,8h[8:1],,,1,2h[8:1],,,5,6h[8:1],,,,4h[16:5],,,,
{128}8,7,6,5,,3,2,1,8,7,6,5,,3,2,1,8,7,6,5,,3,2,1,8,,,,1-5[32:1],,,,
{128}8/2h[16:1],,,,,,,,7,6,5,4,3,2,1,8,7-4>3[32:1]b*-3[32:1]/3h[32:3],,,,,,,,2-5<6[32:1]b*-6[32:1],,,,1,,,,8,,,,8,,,,1,,,,,,,,7b,,,,,,,,2b,,,,,,,,
{128}1/7h[16:1],,,,,,,,E3,B3,B4,E5,E7,B6,B5,E5,1-6[32:1]b*-4[32:1],,,,,,,,8-5[32:1]*-3[32:1]b,,,,7,,,,6/2,,,,3,,4,,3,,6,,5,,6,,1b,,,,,,,,8b,,,,,,,,
{128}7h[16:1]/5,,,,,,,,4,3,2,1,8,7,6,5,4-8[32:1]/3-8[32:1],,,,,,,,6-1[32:1]/5-1[32:1],,,,7,,7,,8,,,,1,,,,2,,,,2,,,,4/3,,,,,,,,6/5,,,,,,,,
{128}8-3[32:1]b/2,,,,,,,,2-5[32:1]b,3,4,5,6,7,8,1,2/4-7[32:1]b,,,,,,,,6-1[32:1]b,,5,,7,,,,8x,,,,1,,,,2x,,,,3,,,,4x,,,,5,,,,6x,,,,7-3[32:1],,,,
{128}8h[16:1]/2h[32:1],,,,,,,,2,1,8,7,6,5,4,3,2-6[32:1]b,,,,1,,,,8-4[32:1]b,,,,7,,,,,,,,,,,,7,3,7,,,,,,2/1,,,,,,,,8/1,,,,2-6[32:1],,,,
{128}1h[16:1]/7h[32:1],,,,,,,,7,8,1,2,3,4,5,6,7-3[32:1]b,,,,8,,,,1-5[32:1]b,,,,2,,,,,,,,,,,,2,6,2,,,,,,7/8,,,,,,,,1/8,,,,,,,,
{128}2h[16:1]/4,,,,,,,,5,6,7,8,1,2,3,4,5-1[32:1]/6-1[32:1],,,,,,,,3-8[32:1]/4-8[32:1],,,,2,,2,,1,,,,8,,,,7,,,,7,,,,5/6,,,,,,,,3/4,,,,,,,,
{96}7/1,,,6,4,5,3,,,8/2,,,
{64}2,4,3,3,7,5,6/Cf,,
{96},,,,,,,,,,,,,,,,,,3,4,5,6,7,8,
{32}1h[4:1]/C,E1,D1,,C,E8,D8,,C,E7,D7,,C,E6,D6,,8h[4:1]/C,E5,D5,,C,E4,D4,,C,E3,D3,,C,E2,D2,,
{32}7h[8:1]/E1,E8,E7,,E2,C,E6,,5h[8:1]/E3,E4,E5,,A3,D4,A4,,3h[8:1]/A6,E6,E5,A4,E7,B6,B4,E4,1h[8:1]/A7,B7,B3,A3,C,E1,D1,,
{32}8h[4:1]/C,,D1,,C,,D2,,C,,D3,,C,,D4,,1h[4:1]/C,,D5,,C,,D6,,C,,D7,,C,,D8,,
{32}6h[8:1]/A3,E4,E5,A5,E3,B3,B5,E6,8h[8:1]/A2,B2,B6,A6,E2,B1,B7,E7,
{16}Ch[4:1],8h[256:1],7h[256:1],6h[256:1],5h[256:1],4h[256:1],3h[256:1],2h[256:1],
{96}4h[32:3]/5h[32:3],,,,,,,,,,3/6,2/7,
{64}1h[4:1]/8,,,,D2,,D8,,E1,,,,,,C,E5,D5,,,,2/7,,,,
{96}4h[32:3]/5h[32:3],,,,,,,,,,3/6,2/7,
{64}1-5[32:1]/8h[8:1],,,,4-8[32:1],,5,,7,6,5,4,8,7,6,5,1,,,,4,,,,
{128}7h[16:1]/5,,,,,,,,4,3,2,1,8,7,6,5,4-8[32:1]/3-8[32:1],,,,,,,,6-1[32:1]/5-1[32:1],,,,7,,7,,8,,,,1,,,,2,,,,2,,,,4/3,,,,,,,,6/5,,,,,,,,
{128}8-3[32:1]b/2,,,,,,,,2-5[32:1]b,3,4,5,6,7,8,1,2/4-7[32:1]b,,,,,,,,6-1[32:1]b,,5,,7,,,,8,,,,1,,,,2,,,,3,,,,4,,,,5,,,,6,,,,7-3[32:1],,,,
{128}8h[16:1]/2h[32:1],,,,,,,,2,1,8,7,6,5,4,3,2-6[32:1]b,,,,1,,,,8-4[32:1]b,,,,7,,,,,,,,,,,,7,3,7,,,,,,2/1,,,,,,,,8/1,,,,2-6[32:1],,,,
{128}1h[16:1]/7h[32:1],,,,,,,,7,8,1,2,3,4,5,6,7-3[32:1]b,,,,8,,,,1-5[32:1]b,,,,2,,,,,,,,,,,,2,6,2,,,,,,7/8,,,,,,,,1/8,,,,,,,,
{128}2h[16:1]/4,,,,,,,,5,6,7,8,1,2,3,4,5-1[32:1]/6-1[32:1],,,,,,,,3-8[32:1]/4-8[32:1],,,,2,,2,,1,,,,8,,,,7,,,,7,,,,5/6,,,,,,,,3/4,,,,,,,,
{96}7/1,,,6,4,5,3,,,8/2,,,
{64}2,4,3,3,7,5,6/Cf,,
{96},,,,,,,,,,,,,,,,1,8,1,8,1,8,2/7,3/6,
{96}4/5xh[8:3],,,,,,E5,,,,,,B6,,,,,,C,,,,,,B2,,,,,,B8,,,,,,A1,,,,,,,A8,D1,E1,C,E5,
{4}D5f/A4/A5,
