&title=我就是想玩舞萌DX
&artist=我是诚歌
&first=-0.33
&des=我要玩舞萌DX
&des_5=我要玩舞萌DX
&lv_7=忍
&inote_7=(130)
{4},,
{128}B1/B8,,C,,B6,B3,3xv1[12:1]/6xv8[12:1],,,,,,,,,,,,,,,,,,,,,,,,,,,,,,,,,,,,,,,,,,,,,,,,,,,,,,,,,,
{128}B1/B8,,C,,B6,B3,3xv1[12:1]/6xv8[12:1],,,,,,,,,,,,,,,,,,,,,,,,,,,,,,,,,,,,,,,,,,,,,,,,,,,,,,,,,,
{128}B1/B8,,C,,B6,B3,3xv1[12:1]/6xv8[12:1],,,,,,,,,,,,,,,,,,,,,,,,,,,,,,,,,,,,,,,,,,,,,,,,,,,,,,,,,,
{4}3V14[8:1]/5V74[8:1],,2-6b[8:1]/8-4b[8:1],,
{8}4/5,2/1,4/5,2/1,4b/5b,7b/8b,4b/5b,7/8,
{4}8-2v3-5[8:1]*-5[8:1],,1-5b[8:1]/7-3b[8:1],,
{32}4h[8:1],,,,5h[4:1],,,,2bx,3bx,,,4h[8:3],,,,
{128}5h[4:1],,,,,,,,,,,,,,,,,,,,,,,,,,,,,,,,,E4/E6,E7/E3,7bx/2bx,,,,,,,,,,,,,,,,,,,,,,,,,,,,,
{4}1-4-8[8:1]/5-8-4[8:1],,2v4b[8:1]/6v8b[8:1],,
{16}4xh[4:1]/6x,5x,6x,5x,3xh[4:1]/6x,5x,6x,5x,4xh[4:1]/6bx,5x,6bx,5x,3xh[8:1]/6bx,,,,
{4}1<5[8:1]/3v5[8:1],,3v5b[8:1]/7v1b[8:1],,
{16}E8,E2,E6,E4,B7,B2,B6,B3,B8f,B1,B5f,B4,Cf,,,,
{4}8<4v5[8:1]/4v3[8:1],,1v4b[8:1]/5v8b[8:1],,A1/A2/A3/A4/A5/A6/A7/A8/D1/D2/D3/D4/D5/D6/D7/D8,A1/A2/A3/A4/A5/A6/A7/A8/D1/D2/D3/D4/D5/D6/D7/D8,
{128}A2f,D3,A3,D4,A4,D5,,,,,,,,,,,,D1f/A8,,D8/A7,,D7/A6,,,,,,,,,,,D2/A2f,,,,,,,,,,,,,,,,,,,,,,,,,,,,,,,,
{4}3V58[8:1]/1s5b[8:1],,3v2b[8:1]/7v6b[8:1],,
{32}6x,,6x,,6x,,6x,6x,B7,,6x,,B7,,B7,6x,6bx,,6x,6x,6bx,,B7,,6bx,,,,,,,,
{4}4-1<8[8:1]*<6[8:1],,1v3b[8:1]/7v5b[8:1],,
{8}Ch[2:1]/B8/B7/E8,B1/B2/E2,
{384}B6,E6,B5,,,,,,,,,,,,,,,,,,,,,,,,,,,,,,,,,,,,,,,,,,,,,,B3,B4,E4,,,,,,,,,,,,,,,,,,,,,,,,,,,,,,,,,,,,,,,,,,,,,,
{8}A8/D1f/A1,A7/D7f/A6/A2/D3f/A3,A5/D5f/A4,,
(260)
{32}1,2,3,4,5,6,7,8,1,2,3,4,1,2,3,4,8,7,6,5,4,3,2,1,8,7,6,5,8,7,6,5,
{32}2,3,4,5,2,3,4,5,6pp4[4:1]*pp4[4:1],7,8,1,2,3,4,5,{4},,
{32}7h[1:0]/5,8,1,2,3,4,7h[1:0]/5,8,1,2,3,4,8h[1:0]/5,7,6,5,4,3,2/8h[1:0],7,6,5,4,3,2/8h[1:0],7,6,5,4,3,2,1,
{32}2h[1:0],8/3,7/4,5,6,7,8,1/6,2/5,3,4,5,6,7/4,8/3,1,2,3,4,5/2,1/6,7,8,1,2,3,2,3,2,3,2,3,
{32}2/4,3/5,4/6,5/7,6,7/5,6/8,7/1,
{4}8bh[4:13]/2bh[4:13],
{16}5bx,5bx,5bx,5bx,5bx,5bx,5bx,5bx,5bx,5bx,5bx,5bx,5bx,5bx,5bx,5bx,5bx,5bx,5bx,5bx,5bx,5bx,5bx,5bx,5bx,5bx,5bx,5bx,5bx,5bx,5bx,5bx,5bx,5bx,5bx,5bx,5bx,5bx,5bx,5bx,5bx,5bx,5bx,5bx,5bx,5bx,5bx,
{32}5bx,B5f,Cf,B1f,A1f,D2f,D1f,
{24}E2f,E1f,A2f,
{16}A8f,E3f,
{8}B3f,E8f,
{6}A3f,A7f,B6f,E5f,
