&title=Stardust:RAY
&artist=kanone vs. BlackY
&first=0.19
&des=TheF;r3f1y_Fall Memory
&demo_seek=110.5
&des_5=TheF;r3f1y
&lv_5=14
&inote_5=(164)
{1},
{8}
Ch[2:1],,,,,,
{16}1x/5x,6x/2x,7x/3x,8x/4x,1xbs5[8:1]*-5b[8:1],,,,,,,,
{6}2/B6,7/B3,1bx>8[24:10]/E6f,,,,,
{12},
{64}E7,
,B6,B5,B4,B3,E3,,,,,,,,,,
{8}8bx-4[8:1],,,,
{16}1h[8:1]/6h[8:1],,,7h[8:1]/3h[8:1],,,25,,6h[8:1]/4h[8:1],,,1h[8:1]/5h[8:1],,,3bx>5[3:1]/7bx,,,,,,,,,,
{8}Ch[4:1],,,,
{6}26,84,1bxpp4[8:3]/5bxpp8[8:3],,,,
{16},,,,E3,E7,E4,E6,1bx-5[8:1],,,,,,,,
{16}8h[8:1]/3h[8:1],,,4h[8:1]/6h[8:1],,,35,,1h[8:1]/6h[8:1],,,3h[8:1]/5h[8:1],,,8bxh[8:3]/1bxh[8:3],,,,,,,,,,
{4}4>5<4[4:14]/5,E5,E6,E7,E8,E1,E2,E3,E4,E5,E6,E7,E8,E1,C,E5,
{8}8h[2:1],1,1,1,3h[2:1],4,4,4,5,5h[8:1],4,4h[8:1],
{24}8,7,6,2,3,4,7,6,5,1,2,3,8bx-2-7-3-6-4[2:1],,,,,,,,,,,,,,,,,,,,,,,,
{6}2/E6f,8/B3f,1bxw5[4:1]/Cf,,,,
{8}2xh[8:1]/7xh[8:1],,35,
{16}3,7,3,,3,6,3,,3,5,3-1[16:1],,3,4,3bx,,,,
A7,A8,A1,A2,,,
{8}63,1-5[8:1]/8h[4:1],,1,,64,
{16}6,5,6,,6,4,6,,6,3,6,,6,2,
{12}5x,5,5,3x,3,3,
{16}8bx-6[8:1],,2,2,8bx-4[8:1],,1,1,8bxw4[8:1],,,,A8f,,,,
2,4,2,4,3,5,3,5,4,6,2,5,3,7,4,6,1h[4:1],,,,
{8}7,7,
{16}B2/E3,B8,B4/E5,B6,Cf,,,,
{16}2,3,4,5,6,7,8,1,2h[16:4]/8x,7,6,5,4,3,2,1,8x/Cf,,,,
2,6,3,4,1,8,5,6,2xh[8:1],,8x,,3,,3,,7,8,7,8,6,1,5,2,4xh[8:1],,3x,,8,,8,,2,1,2,1,3,8,4,7,5xh[8:1],,6x,,3,,3,,6,5,7,3,4,2,7,1,
{32}7x,6x,5x,4x,3x,2x,1x,8x,7x/Cf,,,,,,,,
{16}1,8,2,7,1,8,2,7,1h[4:1],,5,,Cf,,,,3,5,4,6,2,8,1,7,3h[8:1],,5,,
{16}1b-5[16:1],,,7b-3[16:1],,,2b-6[16:1],,,5b-1[16:1],,,3b-7[16:1],,8b-4b[8:4],,8hbx[2:1],,,,,,,,,,,,7pp4[2:1]/2-5b[8:1],,,,
{4}2bx`B3f,,3^8[8:1],5^8b[8:1]*qq2[2:1],5bx`D7f,,8-4[8:1],1qq6[2:1]*^4b[8:1],1bx`D3f,,2h[4:1],8^5[4:1],5^2[4:1],2^7[4:1],7^4[4:1],4w8[4:1],,,
{32}2x,E3,B3,B4,E5,,,,6x,E7,B7,B8,E1,,,,
{4}4^1[8:1],4^7[8:1],4w8[8:1],4,
{8}2-6[8:1],2,8-4[8:1],8,3,3,
{16}6,5,6,5,
{8}8-4[8:1],8,2-6[8:1],2,5xh[4:1],,C,,
{16}8-4[8:1]/1,,,7,8,,6h[4:1],,1,2,3,4,8x,1,2,3,1-6[8:1]/4,,,2,1,,4h[4:1],,1,8,7,6,8,7,6,5,4/8-4[8:1],,,7,8,,6h[4:1],,1,2,3,4,5,6,7,8,16,5,4,3,2,1,8,7,
{16}2,1,2,1,3,8,3,8,
{16}2,2,4,4,6,6,8,8,3,4,3,4,2,5,2,5,1,1,3,3,5,5,7,7,2,1,3,8,4,7,5,6,
{24}1x,2,
{16}3,6,
{24}6x,
{24}1x,2,
{16}3,5,
{24}5x,
{24}8x,1,
{16}2,5,
{24}5x,
{24}8x,1,
{16}2,6,
{24}6x,
{32}2x,3,4,5,1x,2,3,4,7x,6,5,4,8x,7,6,5,1bx-5[8:1],,,,,,,,,,,,,,,,8x-5-1-4[4:11]*-3-7-4[4:11]`Cf,,,,,,,,,,,,,,,,,,,,,,,,,,,,,,,,
{1},,
{4},,,
{16}4,5,4,5,4-1[8:4],,,,5,,,,6,,,,7,,,,8-5[8:4],,,,4,,,,3,,,,2,,,,
{8}1/Ch[8:6],1,1,1,1,1,1,1,
{16}1,8,2,7,3,6,4,5,
{32}2,3,4,5,6,7,8,1,2,3,4,5,6,7,8,1,2bx-6[8:1]/6xb-2[8:1],,,,,,,,,,,,,,,,
{16}4hxb[8:1]/7hxb[8:1],,,1hxb[8:1]/5hxb[8:1],,,8hbx[8:7]/3xb-5-2-6-1-7b[8:5],,,,,,,,,,,,,,,,,,1/5bx-1[8:1],,,,,,,,
2hbx[8:1]/5hxb[8:1],,,4hbx[8:1]/8hbx[8:1],,,3bx/6bx,,1hbx[8:1]/7hbx[8:1],,,5hbx[8:1]/3hbx[8:1],,,7bx-4-6-2b[8:3]/Cf,,,,,,,,,,1bx-5[12:1],,,,,,,,
{16}3hxb[8:1]/6hxb[8:1],,,4hxb[8:1]/8hxb[8:1],,,2hbx[8:7]/5xb-2-7-4-1-6b[8:5],,,,,,,,,,,,,,,,,,
8bx>3[8:1]*<5[8:1]/C,,,,,,,,
4bx-8[16:1],,,6bx-2[16:1],,,1bx-5[8:1],,1bx,,,7bx-3[16:1],,,4bxw8b[4:1],,,,,,,,,,
{4}D2/E2,D3/E3,D4/E4,D5/E5,D6/E6,D7/E7,D8/E8,D1/E1,B2/A2,B3/A3,B4/A4,B5/A5,B6/A6,B7/A7,B8/A8,B1/A1,
{16}2,8,3,1,2,1,3,8,4-1[8:1],7,5,6,4bx,,,,7,5,7,5,6,4,6,4,5-8[8:1],3,5,3,5bx,,,,
{32}1hx[8:1]/7b,6,5,4,,,,,8hx[8:1]/2b,3,4,5,,,,,1b,2,3,4,8b,7,6,5,2b,3,4,5,7b,6,5,4,
{16}1,1,8,8,
{32}2b,3,4,5,8b,7,6,5,2,,2,,7,,7,,1b,2,3,4,8b,7,6,5,1hb[4:4]/4x,,,,,,,,,,,,,,,,,,,,,,,,,,,,,,,,
{8}6,,7,,8,
{16}1,8,2b/7b,,,,
1-5[8:1]/8,,,2,1,,3,,7^4[8:1],,2,2,7,,3,,8-6[8:1],,4,4,8-4[8:1],,3,3,8,,2,2,
{32}8x,7,6,5,4,3,2,1,
{16}8/4-8[8:1],,,3,4,,2,,6-2[8:1],,1,1,6,,3,,7-1[8:1],,2,3,7-5[8:1],,3,4,7,,2,3,
{24}8,1,8,1,,,
{16}5b-1[8:1]/4,,,6,5,,7,,2-6[8:1],,8,8,2,,7,,1-3[8:1],,6,6,1-5[8:1],,7,7,1,,6,6,
{32}1bx,2,3,4,5,6,7,8,
{4}1/5x<3[4:1],Cf,4x>6[4:1],Cf,5x<3[4:1],Cf,4xw8b[8:1],4b,
{16}2b/6b,,,3b/5b,,,
2,1,3,8,4,7,5,6,8,7,1,6,2,5,3,4,2,1,2,1,3,8,3,8,4,7,5bx/6bx,,,1b/5b,,,
3,4,3,4,2,5,2,5,4,6,4,6,3,5,3,5,2,4,1,2,3,4,58,7,6,5,
{4}3bpp8[8:3]/4h[4:1],,
{16}8xw4b[8:1],,,,Cf,,,,
{4}6qq1b[8:3]/2hx[4:1],,
{16}1xbw5[8:1],,,,Cf,,,,3,7,3,7,2,6,2,6,1,5,1,5,8hbx[4:1],,,,
7,7,,1,1-5-1[4:1],,
{32}5,,,,
{8}1w5b[8:1],,,,
{16}8h[8:1],,,6h[8:1]/2h[8:1],,,35,,3h[32:14]/5h[32:7],,,,
{32}4x,,2,1,8,7,6,5,4/8bw4[8:1],,,,,,,,8,,,,,,,,
{16}1h[8:1]/7h[8:1],,,2h[8:1]/8h[8:1],,,46,,5h[8:1]/3h[8:1],,,8h[8:1]/4h[8:1],,,17,,
{32}6h[32:14]/4h[32:7],,,,,,,,5x,,7,8,1,2,3,4,5/1b,,,,
{16}6,5,8,5,6,,2b,,4,3,1,3,4,,
1h[8:1]/7h[8:1],,,5h[8:1]/3h[8:1],,,28,,
{32}6h[32:7]/5x,,7,8,1,2,3,4,57,8,1,2,3,4,5,6,7/3b-7[8:1],,,,,,,,6,,,,,,,,
{16}8h[8:1],,,3h[8:1]/5h[8:1],,,26,,1h[8:1]/7h[8:1],,,8h[8:1],,,26,,
{32}3h[32:7]/4,,2,1,8,7,6,5,42,1,8,7,6,5,4,3,
{16}2/6b,,2-5[8:1],1,2,3,2,,8b,,6-2[8:1],5,6,7,6,,
{16}1^4[8:1],,,8,1,,7qq5[8:1],,5<1[16:3],,7,,3,,3,,
4,5,2,6,4,8,2,1,3,6,5,7,3,4,1,1,
{16}7-3[8:1],,,8,7,,2pp4[8:1],,4>8[16:3],,2,,6,,6,,
5,4,7,3,5,1,7,8,6,3,4,2,6,5,8,8,
2b,,7-4[8:1],8,7,6,7,,3,5,4,6,1h[8:1],,5,,7b/8b,,2-5[8:1],1,2,3,2,,6,4,5,3,7h[8:1],,3,,
{16}1b,5,1,5,2b,6,2,6,3b,7,3,7,4b,8,4,8,
{32}4b,5,6,7,8,1,2,3,4/Cf,5,6,7,8,1,2,3,
{16}7b-3[16:1]/4bx,,,7b/1b-5[16:1]*-5[16:1],,,
{48}1bqq6b[16:14]*pp4b[16:14]/8b,B1,C,B5f,,,,,,,,,,,,,,,,,,,,,,,,,,,,,,,,,,,,,,,,,,,,,,,,,
{1},,,,
E
