&title=Abstruse Dilemma[DX]
&artist=打打だいず; Ashrount
&first=-0.19
&des=カザリア
&lv_6=14+
&inote_6=(216)
{1},
{1},
{1}1b>8[2:13]/8b,
{2}E7,C,
{1}E3,
{2}E2,C,
{1}E6,
{2}E4,C,
{1}E8,
{2}1-5[6:1],8h[4:1],
{12}3b/7b,,,6,4,5,3,,,2,4,3,
{12}5,,,6,5,7,4,5,3,7,5,6,
{12}2b,,,3,5,4,6,,,7,5,6,
{12}4,,,3,4,2,5,4,6,2,4,3,
{12}5b,,,6,4,7,5,,,4,6,3,
{12}5,,,6,5,7,3,4,2,7,5,6,
{12}4b,,,3,5,2,4,,,5,3,6,
{12}4,,,3,4,2,6,5,7,2,4,3,
{1}5xh[1:1],
{32}B1,B2,B3,B4,B5,B6,B7,B8,A1,A2,A3,A4,A5,A6,A7,A8,A1,,,,,,,,Cf,,,,,,,,
{12}2^5[8:1],,,82,,,7,,7,5,,5,
{4}6-8[8:1],5,5-3[8:1],6,
{12}7p5[8:3],,,,,,2,,2,4,,4,
{12}3^8[4:1],,,,,,7,6,5,1,2,3,
{12}6,5,7,3,4,2,6,6,5,3,4,3,
{12}7,5,6,3,3,4,6,5,6,2,4,3,
{12}8x,7,6,4x,3,2,7x,6,5,3x,2,1,
{12}6xh[4:3]/8xh[2:1],,,,,,,,,2x,3x,4x,
{12}5x-3[8:1]/7x,,,7-5[8:1]/5,,,17,,,2,4,3,
{4}5^8[8:1],25,1^4[8:1],71,
{32}6h[2:1],,,,,,,,A4,B4,C,B8,A8,,,,1h[2:1],,,,,,,,A7,B7,C,B3,A3,,,,
{12}8-5[8:1],,,1/8-3[8:1],,,8/7,,,6,4,5,
{12}3,,,2,4,3,5,,,6,5,7,
{12}2,4,3,7,5,6,3,4,2,6,5,7,
{12}4xh[2:1],,,8x,8x,8x,8xh[2:1],,,3x,3x,3x,
{12}3xh[2:1],,,7x,6x,5x,4x,3x,2x,1x,8x,7x,
{1}2b/6b<3qq5b[2:7],
{1},
{1},
{1},
{1}7p4[1:2],
{1}C,
{1}1h[2:1],
{12}5b,4,6,4,5,3,{16}4,5,3,6,2,7,1,8,
{12}2b-5[8:1],,,21,,,8^5[8:1],,1,8,,,
{12}3-8[8:1],,,34,,5,5^8[8:1],,4,5,,,
{12}1x,2,3,4,5,6,7x/2x,3,4,5,6,7,
{12}2x/8x,3,4,5,6,7,1x/8x,2,3,4,5,6,
{4}7x-3[8:1],8-4[8:1]/7,8/7^4[8:1],7/1-5[8:1],
{4}1/8-4[8:1],1^4[8:1]/8,1/8^5[8:1],28,
{12}3,4,3,6,5,6,2,4,2,7,5,7,
{16}1,8,1,8,1,8,1,8,1x,,,,{12}B1,C,B5,
{1}4x>6[4:5]/6x,
{4}4b,3b,2b,{12}1x/5x,2x/6x,3x/7x,
{12}8x-4[8:1]/4x,,,4,3,2,1-5[8:1],,8,1,,,
{12}7v4[8:1],,,4,3,2,1-5[8:1],,8,1,,,
{12}7v4[8:1],,,4,3,2,1^4[8:1],,8,1,,7,
{4}5b/6b,4b/3b,1b/2b,8b/7b,
{12}6,5,6,3,4,3,6,5,7,3,4,2,
{4}8b-4[8:1],8b,8b^3[8:1]*^5[8:1],8b,
{12}8,1,7,2,,,6,5,7,4,,,
{12}3,3,4,2,5,3,7b,,,8,7,6,
{12}1>5[4:1]/5,,,5v8[4:1],6,7,8-4[6:1],,,,,,
{12}7<3[4:1],,,3v8[4:1],2,1,8-4[6:1],,,,,,
{4}1bw5[8:1],1b,8bw4[8:1],8b,
{1}1bs5[2:1],
{12}7b,,7,5,,5,4,,4,2,,2,
{4}8^5[8:1],8^3[8:1],8-4[8:1],8,
{12}3,3,4,2,5,4,6,,,7,7,5,
{12}6,4,7,5,,,3,4,2,6,5,7,
{1}1b-7-2-6-3-5[4:7],
{1},
{4}7h[1:1],5,4,3,
{4}2h[1:1],6,5,4,
{12}5,4,6,3,4,2,6,5,7,3,4,2,
{12}7,5,6,2,4,3,8,5,7,1,4,2,
{1}8x<1[4:7],
{1},
{24}7bh[12:5],,,,,,,,,1,2,3,4b/6b,,,,7b,,,,1b/8b,,,,
{12}2,2,4,3,3,5,4b>8[8:1],,,{24},,,7,6,5,
{24}4bh[12:5],,,,,,,,,8,1,2,3b/5b,,,,6b,,,,7b/8b,,,,
{12}1,1,8,2,2,1,4w8[8:1],,,4,,,
{12}6bh[12:5]/2bh[12:5],,,,,,3b/7b,,4b/8b,,1b/5b,,
{12}8,7,6,4,3,2,1b^6[8:1],,,{24},,,5,4,3,
{12}2bh[12:5],,,,,,3b/5b,,2b/6b,,1b/7b,,
{12}8,8,2,7,7,1,6,5,6,2,4,3,
{12}7bh[2:1],,,,,,1b,,2b/6b,,3b/7b,,
{12}4b/8b,,1b/5b,,2b/6b,,{24}3b/7b,B3/B7,Cf,,,,,,,,,,
{12}8x,7x,6x,1x,2x,3x,7hx[8:1]/4hx[8:1],,6hx[8:1]/3hx[8:1],,5hx[8:1]/2hx[8:1],,
{12}1,2,3,5,6,7,8-4[8:1],,,18,,,
{24}2bh[12:5]/6bh[12:5],,,,,,,,,,,,3x/7x,8x/4x,1hx[3:1]/5hx[3:1],,,,,,,,,,
{12}8,7,6,4,3,2,1b/8b,,,,,{24}7,6,
{24}2b/5bv8[8:1],,,,,,,,,,2,3,4bv1[8:1]/7b,,,,,,,,,,7,6,
{4}2b-5[8:1]/5b-1[8:1],2b/5b,3b/7b,,
{1}Cf,
{1},
{1},
{1},
{2}E7/B8,B6/E5,
{2}E3/B4,B2/E1,
{24}B6,B5,,,,,,,,,,,,,,,E3,C,{8}E7,E2/E6,
{2}E1/E5,Ch[4:1],
{12}1b/8b,,,2,2,4,3,,,5,5,4,
{12}6,,,7,5,6,3,4,2,81,,,
{12}7b,,,6,6,5,7,,,4,4,5,
{12}3,,,2,4,3,6,5,7,18,,,
{4}2h[4:1],3h[4:1],4h[4:1],{12}5,,5,
{12}6,,6,7,,7,6,5,4,1,2,3,
{1}8<1[8:5],
{16}4,8,3,7,2,6,1,5,{24}2,3,4,5,6,7,8-4[8:1],,,,,,
{1}1b/8b,
{4},4b,3b,2b,
{12}1bw5[8:1],,,1b,,,,,,2,4,3,
{12}7,5,6,2b^5[8:1],,,2b/8b-4[8:1],,,8b/1b-5[8:1],,,
{12}1b/7bh[4:1],,,4,3,2,1h[4:1]/6,,,5,6,7,
{4}2b-7[8:1],6b-3[8:1],4b-1[8:1],8b-5[8:1],
{12}3x,,42,,15,,8,,17,,26,,
{12}5,4,6,3,4,2,7,5,6,2,4,3,
{12}8b<3[4:1],,,,,,1,,28,,37,,
{12}6,6,4,5,5,3,6,6,2,5,5,3,
{12}6h[12:5],,,3,2,1,8b/7b,,4b/5b,,2b/8b,,
{24}7,6,5,3b/4b,,,,,,,,,3,,4,,2,,6,,5,,7,,
{12}1>5[4:1],,,5v2[6:1],6,7,8-5[8:1],,,8^3[8:1],,,
{4}8^5[8:1],8-3[8:1],8-5[8:1],8,
{12}1,1,4,2,5,3,7,,,6,6,5,
{12}7,3,4,2,,,2,2,5,3,6,5,
{4}7hx[4:3],,,2hx[4:3],
{12},,,,,,6x,7x,8x,1x,2x,3x,
{12}4,4,5,3,6,5,7,,,8,8,1,
{12}7,2,1,3,,,48,37,26,15,26,37,
{1}4/8-4[2:1],
{32}A1,A2,A3,A4,A5,A6,A7,A8,B1,B2,B3,B4,B5,B6,B7,B8,B1,,,,,,,,Cf,,,,,,,,
{12}4b/5b,,,6,6,5,7,,,1b/8b,,,
{12}2,2,4,3,,,5b/6b,,,4,4,5,
{12}3,,,3b/4b,,,2b/5b,,,1b/7b,,,
{12}2b/6b,,,3,3,5,2,,,1b/8b,,,
{12}7,7,5,6,,,3b/5b,,,2,2,1,
{12}3,3,8,2b,3,4,57,6,5,14,2,3,
{12}7b/4,6,5,43,2,1,68,5,4,1b/3,2,3,
{12}4bx/5bx,6,7,8bx/1bx,2,3,{24}4bx/7bx,6,5,4,3,2,1,8bx,7,6,5,4,
{1}3bx/1bx,
{1}1bw5b[1:4],
{1},
{1},
{1},
{1},
E
