&title=Press
&artist=VeetaCrush
&first=0
&lv_5=13+
&des_5=简心单视
&inote_5=
(195){4},{1},{4}3h[8:3],
{8},2h[8:3],{4},{8}1h[8:3],
{4},{8}8<1[8:15],{4},C,
,8,{8}8,8h[8:9],{1},{8}2,
3,
4,5,{4}6h[8:3],{8},7h[8:3],{4},{8}8h[8:3],
{4},{8}1>8[8:15],{4},C,
,1,{8}1,1h[8:9],{1},{4}8-4[8:1],
,2>5[8:1],{8}2,8<5[8:1],,8,
{4}1h[4:1],{8}4,3,{4}2/4,{8}5,6,
{4}5/7h[4:1],8-4[8:1],{8}2,2-6[8:1],,5,
{4}5,{8}4,3,{4}5/2h[4:1],{8}1,8,
7/3,6/2,{4}1>4[8:1],{8}1,7<4[8:1],,7,
{4}1h[4:1],{8}8,7,{4}8/6,{8}1,2,
{4}1/3h[4:1],4-8[8:1],{8}6,6-2[8:1],,1,
{4}1,{8}4,4,{16}5,5,{8}5,7/3,5,
6/2,4,{4}7<4[8:1],{8}7,1>4[8:1],,1,
{4}8h[4:1],{8}5,6,{4}7/5,{8}4,3,
{4}4/2h[4:1],1q5[8:1],{8}7,7p3[8:1],,4,
{4}4,{8}5,6,{4}4/7h[4:1],{8}8,1,
2/6,3/7,{4}8<5[8:1],{8}8,2>5[8:1],,2,
{4}8h[4:1],{8}1,2,{4}1/3,{8}8,7,
{4}8/6h[4:1],5q1[8:1],{8}3,3p7[8:1],,8,
{4}8,{8}5,5,{16}4,4,{8}4,{16}6x,5,3x,4,
6x,5,3x,4,{4}8xV64[8:1],{8}2,1V37[16:3],,7,
{4}8h[4:1],{8}6-1[8:1],5,{4}4/6,{8}2-5[8:1],1,
{4}8/2,{8}7V53[8:1],8,1,2V84[16:3],,6,
5h[8:3],{4},{8}3,5/4,6,7,8,
1/2,4/3,{4}5V71[8:1],{8}3,4V26[16:3],,6,
{4}5h[4:1],{8}7-4[8:1],8,{4}1/7,{8}3-8[8:1],4,
{4}5/3,{8}6V82[8:1],5,4,3V15[16:3],,8,
8h[4:1],{4},{8}7,6/5,4/3,{16}1x/2x,8,7x,6,
5x/1x,2,3x,4,{4}5V31[8:1],{8}6,7V51[16:3],,8,
{4}2h[4:1],{8}8-3[8:1],7,{4}6/8,{8}4-7[8:1],3,
{4}2/4,1V75[8:1],{8}2,3V15[16:3],,4,
6h[4:1],{4},{8}6,7/8-4[8:1],1-3[16:1],8-6[8:1],1-5[8:1],
8,1,{4}8V24[8:1],{8}7,6V84[16:3],,5,
{4}3h[4:1],{8}5-2[8:1],6,{4}7/5,{8}1-6[8:1],2,
{4}3/1,4V68[8:1],{8}3,2V48[16:3],,1,
7h[4:1],{4},{8}7,6/5,4,{16}2x,3,7,6,
{32}2,3,4,5,6,7,8,1,{4}2bV48V62-6-8-4-2[4:13],,,,,,,,5h[2:3],
{2},,,{8}B6,
B3,{4}7-1-5-3-7-3-5-1-7[1:3],,,,,,,,2h[4:5],
,,,,,{16}E1,
E8,E7,E6,
E5,E4,E3,E2,{4}1xh[4:5],{8}8,8,,2,
{4}2>8[4:3],{2},{4}Ch[2:1],
,8h[1:1],{8}1,1,,7,
7-3[8:1],{4},{8}E6,B6,B7,E8,E2,
B2,B3,{4}5h[4:5]/E4,{8}4,4,,6,
{4}6<4[4:3],{2},{4}Ch[2:1],
,{8}4,4,4,{16}6,5,,3,{8}4,
{4}6h[8:5]/2>7[16:7],{2},{24}8,1,2,3,4,5,
6,7,8,1,2,3,{4}4h[4:1]/5-1[8:1],,{8}4/2,{16}1,3,
{8}1,2h[2:1],,4,6-1-5[4:1],8,{4}6x,
{8}4,4,3h[8:1],4h[8:1],5h[8:1],6h[8:1],1h[8:1],{16}7,8,
7,8,{8}6,{16}2,1,2,1,{8}3-7-2-8[4:1],4,{4}5xh[4:1],
,5/7h[4:1],6-1-5-2[8:3],6x,
,{8}8,{16}1,1,{8}4,{16}8,8,{4}5<7[8:1]*>3[8:1],
,8/2-6[8:1],{8}2/7,8h[4:1],,1,
8/2h[8:3],{4},{8}1,8/4,3,{16}2/7,6,5,4,
3-6-1-4-8-5-2-6[4:5],2,1,8,{4}7xh[4:5],,,,,,8x,
B4/B5/E5/B3/E4/A5/A3/A4,{24}1-4-8-5-2-7-3-6b[1:1],8,7,6,5,4,{2}3bxh[1:1],
{4},,,{8}7b/1b,7/1,
8b/2b,8/2,{4}1b/3bh[2:1],2-5-8[16:3],{16}2x,{8},{16}1,
{8},1,6h[2:1],8,7>4[4:1],8,{4}7x,
,{16}6,5,6,5,7,4,7,4,5,3,5,3,
6,2,6,2,7x,1,7x,1,8x,2,8x,2,{8}1bw5[8:1],1b,
{4},3/7-4[8:1],{8}7/1,2-6[8:1],,1/2,
{4}8-4[8:1],{8}3V17[8:1],2,{4}3,{8}6V84[16:3],5,
{4}6,2-4[8:1],{8}5/2,6-8[8:1],,1/6,
2h[4:1],{4},{8}2/4,3,5/4,6/5,7,
8/1,1/2,{4}8/3p7[8:1],{8}3/6,5q1[8:1],,5/2,
{4}4>1[16:1],{8}7V53[8:1],8,7,1V36[16:3],,1,
{4}8,{8}7p3[8:1],8,1/7,2h[4:1],,4-8[8:1],
{4}5/3,{8}6,6,7/1,8,{16}1x,2,8x,7,
{32}1x,2,3,4,5,6,7,8,{4}1b-5[8:1],{8}1/8,7-4[8:1],,2/7,
{4}1-5[8:1],{8}6V82[8:1],7,{4}6,{8}3V15[16:3],4,
{4}3,7-5[8:1],{8}4/7,3-1[8:1],,8/3,
7h[4:1],{4},{8}6/8,7x,1/8,2/1,3/4,
4/5,5/6,{4}4/7p3[8:1],{8}7/2,1q5[8:1],,1/6,
{4}7v4[16:1],{8}2V46[8:1],1,2,8V62[16:3],,8,
{4}1,{8}3-8[8:1],4,5/3,6h[4:1],,5-1[8:1],
{4}4/6,{16}2,3,4,5,1x,2,3,4,8x,1,2,3,
7x/4x,5,6,7,{4}8pp4[4:5],,,,,,5h[4:7],
,C,{8}B3,B2,{1},{8}5,
4,
3,2,{4}1qq5[4:5],{8},2,{4},{8}3,
{4},{8}4,{4},4h[4:5],
,C,{8}B6,B7,{2},{8}5,
5,4,4,{16}A7,A6,A5,A4,
A3,A2,A1,A8,
E
