&title=ハッピーシンセサイザ
&artist=EasyPop
&clock_count=4
&cabinet=SD
&first=0.03
&lv_4=10.4
&des_4=Rin
&inote_4=
(127){4},{12},,,,,,,,,{6}6h[12:1],
5h[12:1],4h[12:1],3,{12},,,,{4}5,
3,1,7/8,
7,1,3,5/4,
{2}6h[4:1],3h[4:1],
{4}6,3,6/4,3/5,
1b-5[2:1],8,7,7,
8-4[2:1],1,2,2,
1>4[2:1],8,7,6,
8<5[2:1],1,2,3,
2,4,{2}6h[4:1]/5-7[8:1],
{4}5,5,{2}3h[4:1]/4-2[8:1],
{4}1,1,7h[4:1],3h[4:1],
{1}1>8[2:1],
{4}6h[2:1],8,3h[2:1],1,
5h[2:1],8,4h[2:1],1,
6h[2:1],2,,3/5,
{2}4h[4:1],4h[4:1],
{4}3h[2:1],2,4h[2:1],1,
5h[2:1],8,6h[2:1],7,
,4,{2}4w8[8:3],
{8},,,,7,7,1,1,
{4}6h[4:1],2h[4:1],{8}7,8,{4}1,
8,1,{8}2/6,7/3,{4}6/2,
1h[2:1],6<2[4:1],,,2,
3,{2}4,
{4}6h[4:1],2h[4:1],{8}7,8,{4}1,
8,1,{8}2/6,7/3,{4}6/2,
{2}1h[4:1]/6p3[2:1],{4}1,2,
{1}5<4[2:1],
{4}5/4,7/1,5/4,8/2,
5/4,7/1,5/4,8/2,
1,8qq4[2:1],,,3,
2,1,8,
7/8,6/1,1/2,8/3,
8/1,7/2,5/3,6/4,
7,5pp5[4:1]*qq5[4:1],,,8b/4,
7/3,6/2,1/5,
5-8[2:1],4,3,3,
1-5[2:1],6,7,7,
{2}8>3[4:1],4p8[4:1],
{1}7-5[4:1],
{2}4h[4:1],{8}8,8,{4}8,
{2}5h[4:1],{8}1,1,{4}1,
5/4,6/3,7/2,8/1,
{1}8<5[4:1]/1>4[4:1],
{4}2h[4:1],3h[4:1],{8}4,1b,{4}1b,
5h[4:1],6h[4:1],{2}7h[4:1],
E
