&title=まっかっか
&artist=葉月ゆら
&first=0.02
&des=哈士奇油蜡
&lv_5=13+
&inote_5=(124){4},,,{8},{16}2,8,
{8}2h[4:1],1,7h[4:1],8,3h[4:1],4,6h[8:1],5,
4/6,4,3/6,3,5/2>5[8:1],1,2,6,
7h[4:1],8,2h[4:1],1,3,4/2,3/5,4/6,
{12}7/3,2,2,1/6,7,7,8-4[16:1]/1-5[16:1],1/8,8/1,1b/8b,{6},{8}5/6h[8:1],
8,1/2h[8:1],4,{16}5,3,5,4,{4}6b<1[8:1],
{8}6/1,2,3,4/8,{16}4,6,4,5,{4}3b-8[8:1],
{8}3/8,7,6,2/5,{16}3,5,3,4,{8}2b,1/8,
{16}7,8,7,1,{8}8,1/2,{16}3,3,4,2,{4}5bx/1bx>4b[8:1],
{8}1b/5b,{16}6,6,{8}5,7/4,{16}6,4,5,4,6,3,4,3,
1,2,8,1,{8}7,6/2,{16}3,4,1,5,{8}4-7[8:1],3,
4/2,{16}1,1,{8}8,2/4,{16}3,5,4,5,3,6,5,6,
8,7,1,8,{8}2,3/7,{16}8,2,8,2,7,3,6,4,
{8}5bh[8:1],E2,5h[8:1],B2,5h[8:1],B3,5,6h[8:1]/2h[8:1],
,4h[8:1],E8,4h[8:1],B7,4h[8:1],B6,3h[8:1]/7h[8:1],
,8/4h[8:1],7,6,5,2/5qq5[4:1],,5pp5[4:1],
{2},{4}1-5[8:1],{8}1/5,{16}6,6,
{8}5,4-8[8:1],3,2-5[8:1],1,8<5[8:1]*>3[8:1],,8,
{4},7h[4:1],{8},{16}1,8,{8}2q6[8:1],1,
2/8h[4:1],{4},{8}2/7h[2:1],1,8,6,5,
6/4,{16}3,4,{8}3,2/1,{16}7b,6,5,4,8,1,2,3,
{8}4/8,{16}6,5,{8}6<1[8:1],4,6/3V52[4:1],2,3,8,
8,{16}2,1,{8}2>5[8:1],8v5[8:1],2,8,1,6/2pp5[4:1],
,2/5>1[16:3],6,7,8,8<5[8:1]*p4[8:1],,8b,
,1-5[8:1],8,1,{32}E8,E7,{16}A6,2,2,4,3,5,4,
{8}6-1[8:1],5,6/1,2,{16}3,4,3,5,{8}4,8-4[8:1],
4<8[4:1],8,{4}3h[4:1],{8},{16}2,2,{8}1,{16}8,5,
{8}7,{16}4q8[8:1],5,,3,{8}4,1V38[4:1],2,1/8-4[8:1],7,
6,{16}5,5,{8}4,{16}3,6,1,8,{8}3,4b/7b,{16}5,3,
{8}4-2[16:1],7V51[4:1],4-8[8:1],7,{4}4,{8}C,{16}3,5,
{8}4,2/6,7v4[8:1]/1v4[8:1],4-6<7[8:1]*-2<1[8:1],7/1,{4},{16}8,2,
{8}1-3[16:1],6V84[4:1],1-5[8:1],6,{4}1,{8}C,{16}3,5,
{8}4,2/6,4-2[16:1],8-4[8:1],4-6[8:1],8,2,{16}1,1,
{8}8,3/7,{16}5-7>2[4:1],4,{8}6,{4}7/5,{8}C,{16}2pp6[4:1],8,
{8}1,2/6,7,8,{4}1<5[8:1],{8}C,{16}3,3,
{8}4,6/2,{16}1-3<6[4:1],8,{8}2,{4}3/1,{8}C,{16}1<6[8:1],1,
{8}6pp2[8:3],1,4,5,{2}6bxqq2[2:1]*pp2[2:1],
,{8}4b/2b-6[8:1],8/7-4[8:1],2,7,
{16}1-5[8:1],1,7,3,{8}1,B3/E4,8/2-5[8:1],4/6v1[8:1],2,6,
{16}4,8,2,6,{8}8h[8:1],B6/B5,8/2-6[8:1],3/4-8[8:1],2,4,
{16}5-1[8:1],5,7,3,{8}5,B3/B4,{16}3,1,2,1,{24}8,7,6,5/3,{12},{16}1w5[8:1],
7,2,8,{4}1b,{8}5b/7b-3[8:1],1/2-5[8:1],7,2,
{16}8-4[8:1],8,2,6,{8}8,B6/E6,1/7-4[8:1],5/3v8[8:1],7,3,
{16}5,1,7,3,{8}1h[8:1],B3/B4,1/7-3[8:1],6/5-1[8:1],7,5,
{16}4-8[8:1],4,2,6,{8}4,B6/E6,{16}2,8,1,7,1,8,2,8,
1,7,2,6,{4}5bx/3bx-7[8:1],3/7,{8}8,7h[8:1]/1-5[8:1],
,1/7,{4}8-3[8:1],8/2,{8}4,3h[8:1]/5-1[8:1],
,5/3,{4}2-6[8:1],2/5h[4:1],8-3[8:1],
8/4h[4:1],1-7<6[8:1]*<8-6[8:1],1>2-4[8:1]*-3<4[8:1],1z5[8:1]*s5[8:1],
1b,4/6-1[8:1],{8}4/6,3>8[8:1],{16}3,4,{8}3,
5,7,8/2,2/8,7/3,4/6<1[8:1],{16}6,5,{8}6,
4,{16}3,1,2,1,2,8,{8}1,2/7h[8:1],1-3<5[8:1],5-7>1[8:1],
1,B8/C,,5,{4}5w1[8:1],5,
{24}B1,B2,B3,B4,{12},{32}B1,B8,B7,B6,B5,B4,B3,B2,{4}B1/Cf,{8}2/7,{32}1,2,3,4,
{8}5b/7b<4[8:1],{16}8,8,{8}7,{32}8x,1x,{16}2x,4,3,8,4,7,8,4,1,
5,2,6,3,{8}7<4[8:1],4V61[4:1],7b,{24}1x-5[8:1],2x,3x,{8}4x,3,
{16}2,2,4,3,{8}5,1/6,{24}2b/8b,3x,4x,5x,{12},{24}7b/1b,6x,5x,4x,{12},{16}3,
4,2,6,5,7,1,8,1b,2,3,4,{8}5/8,2/1,
{16}4b,5,2,5,4,7,2,8,1V38[4:1],7,3,6,{4}1,
{16}7b,7,1,8,2,1,3,5,4qq4[4:1],6,3,7,{4}4,
{16}6b,6,5,7,1,8,2,7,3,5,2,7,4,7,2,6,
{32}1,2,3,4,5,6,7,8,1,2,3,4,5,6,7,8,{4}1h[8:1],{12}1xpp4[8:3]/8xqq5[8:3],2x/7x,2x/7x,
{2}1b/8b,{4}8/2h[4:1],8,
{16}3h[4:1]/E1,E8,E7,E6,{4}E5,4/7h[4:1],4,
{16}8h[4:1]/E5,E4,E3,E2,{4}E1,1/7h[4:1],1,
{16}6h[4:1]/E1,E2,E3,E4,{4}E5,{16}3,7,4,5,{8}3h[8:1],8,
{16}7,1,6,2,{8}5h[8:1],4,7b/3h[8:1],7,8/2h[8:1],8,
1/2h[4:1],3,4,5,4b/6h[8:1],4,5/7h[8:1],5,
{16}7,8,{8}7h[8:1],1,2,3b/6b,3,4/5,5,
{16}6,3,7,2,{8}8h[8:1],1,{16}B8,B2,{24}B6,E5,,{8}E4,E1,
E7,C,{4}E3,{24}7x,8,1,2,3,4,8x,1,2,3,4,5,
1bx,2,3,4,5,6,{4}3h[8:1]/7h[8:1],{24}2x,1,8,7,6,5,1x,8,7,6,5,4,
{32}8bx,7,6,5,4,3,2,1,8,7,6,5,4,3,2,1,{4}4h[8:1]/8h[8:1],1h[8:1]/5h[8:1],
{16}6,5,6,4,{4}5-1[8:1],{8}5/2-5[8:1],2,6/2,7,
{16}8,1,6,3,{4}4bx/5bx,{8}6b/1b-6[12:1],3/4-8[8:1],1/6,4,
{16}5-1[8:1],5,7,3,{8}5,B2/B3,{16}3,1,2,1,{24}8,7,6,5/3,{12},{16}1w5[8:1],
5,3,7,{4}1b,{8}5b/2b-6[8:1],8/7-4[8:1],2/5,7,
{16}1-5[8:1],1,7,3,{8}1,B2/B3,8/2-6[8:1],3/7,8/2,7,
{16}8v3[8:1]/4v7[8:1],3/7,2/6,1/5,{4}4/8,{8}3b/8b-3[12:1],6/5-1[8:1],8/3,5,
{16}4-8[8:1],4,2,6,{8}4,B6/E6,{16}1b,8,2,7,3,6,{8}4h[8:1],
{16}6b,3,8,1,6b,3,8,1,{2}Cfh[2:1],
{8}B2/B3/E3f,B7/B6/E7f,{4}Cf/B4/B5/B1/B8,{16}1b,2,3,4,{8}5/8,2/1,
{16}6b,3,4,3,7b,4,5,4,8b,3,7,2,{8}6,1/5,
{16}4>1[8:1],5,3,5,{8}4,6,{16}2b/8b,7,6,5,{8}4/1,7/8,
{16}3b,6,5,6,2b,5,4,5,1b,6,2,7,{8}3,4/8,
{16}2,1,3,4,2,2,1,3,8b,7,6,5,{8}4/2,8/7,
{16}6b,5,1,2,5b,1,6,5,1b,4,8,3,{8}7,2/6,
{16}5<8[8:1],4,6,4,{8}5,2,{16}1b/7b,2,3,4,{8}5/8,2/1,
{16}3b,4,8,7,4b,8,3,4,8b,5,1,6,{8}2,7/3,
{16}2x/6x,6x/2x,3x/7x,3x/7x,{4}8b/4bpp4b[16:3]*qq5b[16:3],
E
