&title=Eltina
&artist=Feryquitous
&first=0
&lv_5=11+
&des_5=albertoBradish
&inote_5=
(110){4},,,,,,,,{2}6h[2:1],
4h[2:1],
5h[2:1],{4}3h[4:1],4h[4:1],
{2}3h[2:1],5h[2:1],
4h[2:1],{4}6h[4:1],{16}5,,,4,
{4}3/5h[4:1],B5,{8},4,{4}3/B4,
6/4h[4:1],B4,{8},5,{4}6/B5,
{16}4/3h[16:3],,,2h[16:3],,,{8}1h[16:3],{16},8h[16:3],,,{8}7-3[8:1],8,
7x,Ch[8:5],,,,,{4}1x-5[8:1],
Cf/1bx>1>5[4:3],1,,5>1<5b[2:1],
1<1[2:1],5>1[4:1],1,8-4[8:1],
8x<8<4[4:3],4x,,4<4b[2:1],
8>8>4[4:3],4,8>4[4:1],4x,
1<6[8:1],5/1q2[8:3],{2}1/3h[16:5],
{4}5>2[8:1],4/5q6[8:3],{2}5/7h[4:1],
{4}7/8q6[4:1],6>2[4:1],2<6[4:1],6,
4>1[8:1],1/4<7[8:1],7/4-8[8:1],8/4w8[8:1],
{1}4bx,
E7`E6,
{16}E3`E4,,,,,,,,,,,,,,,E5,
{1}E6`E4,
{8}5h[8:3],{16}E5,B4,,,{8}E8,,,,,4h[16:5],
{16}E5,B5,,E7,,E3,,,E8,E7,{8}E6,{16}E2,E3,
{1}5h[1:1]/E4,
{8}4h[2:1],{16}E5,B5,,,{8}E7,{2}6x>3[8:1],
{8}1x/4x,{16}1>5[8:1],3,,,{8}1x/7-3[4:1],,E6,{4}E1,
{8}8/5,{16}8<4[8:1],6,,,{8}8x/2-6[4:1],,E4,{4}E1,
{8}2q5[8:3],{16}3,4,{4}2x,{8},6,{4}8/5,
{8}7p4[8:3],{16}6,5,{4}7x,{8},3,{4}1/4,
{8}3/4,{16}5,6,,,{8}1h[8:3],,6,{4}8,
{16}6,5,3,4h[8:1],,5h[8:1],,6h[16:9],,,B8,B7,{8}B6,{16}B1,B2,
{8}B3/Ch[4:3],,,,,5,{4}7,
{8}6/5,{16}3,4h[16:3],,,{8}8h[8:1],{2}B2/B3/E3/Cfh[2:1],
{4}8b<4[4:1],4>8[4:1],8>8b[2:1],4<8>4<8[4:3],
8,4,{8}8,1,2,3,
{4}6/4>8>4[2:1],{16}8>4>8[2:1],{32},,,,6,5,{16}4>8>4b[2:1],{32},,,,6,7,{8}8>8[2:1],E7,
{16}4<4[2:1],4x,,,,,,,{2}5<8[8:1],
{8}2/1h[8:3],{64},,,,,,,,,,,,,,,,E3,E2,{32}E1,,,,,,,,,,,,,,,,,,,{8}6/5h[8:3],
{64},,,,,,,,,,,,,,,,E7,E8,{32}E1,,,,,,,,,,,{8}1/5,2/6,
{2}3/7<4[8:1],6/2>5[8:1],
{4}5<8[8:1],8/5>2[8:1],2/5-1[8:1],1/5w1[8:1],
{2}Cf`5b,{16}4h[16:3],,,1,,7,,6x,
{4}Cf/5x>1[4:1],1<5[4:1],{8}5,4,3,2,
{4}3/1<5<1[2:1],{16}5<1<5[2:1],{32},,,,3,2,{16}1<5<1b[2:1],{32},,,,3,4,{8}5<5[2:1],E4,
{16}1>1[2:1],1x,,,,,,,{4}2>5[8:1],2,
{16}6h[8:3],E6,{64}E5,E4,,,,,,,,,,,,,,,E6,E7,{32}E8,,,,,,,,,,,{16}1,2,,4,
3h[8:3],E4,{64}E5,E6,,,,,,,,,,,,,,,E4,E3,{32}E2,,,,,,,{8}3,2/6,5/1,
{4}4/8>4[8:1],8/2,5/1<5[8:1],1/7,
4>1[8:1],1/4<7[8:1],7/4-8[8:1],8/4w8[8:1],
{1}4b/Cf,
E3`E4,
{16}E7`E6,,,,,,,,,,,,,,,E5,
{1}E4`E6,
{8}4h[8:3],{16}5,6,,,{8}8,,,,,5h[16:5],
{16}4,3,,2,,4,,,7,8,{8}6,{16}2,1,
{1}3/4h[1:1],
{8}5,{16}6,7,,,{8}8/2,{4}3<6[8:1],8z4[1:2],
{8}A6,A5,{16}A3,,,A2,,,{8}A1,{16},A8,,,{1}8h[1:1],
E
&lv_6=13
&des_6=albertoBradish
&inote_6=
(110){4},{8},,,,,,,,,,,E5,
E8,E2,
{16}3,3,4,3,4,3h[16:3],,,1,,,2,,,3,4,
6,6,5,6,5,6h[16:3],,,{8}5<8[8:1],4,{16}3,3,,1,
2,2,1,2,1,2h[16:3],,,4,,,3,,,2,1,
7,7,8,7,8,7h[16:3],,,{8}8<5[8:1],1,{16}2,2,,3,
{4}5/4-8[8:1],4/8,{8}7-5[8:1]*-3[8:1],1,{4}7,
4/5-1[8:1],5/1,{8}2-4[8:1]*-6[8:1],8,{4}2,
{16}5,6,5,6,{8}5,{16}4,3,4-8[8:1],3,{8}4,{4}4>6-8-2-5[4:3],
{1}Ch[4:3],
{4}Cf,1,{8},4,{4}1/E6/B6,
4/E8/B7,1,{8}E6/B5,4,{4}1/E7/B7,
5/Cf,8,{8},5,{4}8/E4/B3,
5/E2/B2,8,{8}E4/B4,5,{4}8/E3/B2,
4/1<4<1[8:3],2-6[8:1],2>6[8:1],2/4,
5/8>5>8[8:3],7-3[8:1],7<3[8:1],7/5,
3x-8[8:1],3/5-8[8:1],{8}5/2>5[8:1],3,{4}2/7<1b[2:1],
7/4>6[2:1],1,{2}6-2[16:3]*>3[16:3],
{1}Cf,
5h[1:1],
{8}3h[4:3],{16},,,,,,,,,,,,6,4,
{2}5h[4:3],4,
{8}8,{16}5-8[2:1],6,,,{8}5h[8:3],{16},,,,,,,,6,
5,1,2h[8:1],,4h[8:1],,2h[16:5],,,8,7,{8}6h[16:3],{16}2,3,
{1}5/4-1[8:5],
{16}6,5,4,3,,,{8}1/2,{4}7/8,{16}4,5,3,6,
1-6[12:1]/7-4[12:1],8,,8,1/7,,,3,4,3,,3,4,5,6,7,
8-3[12:1]/2-5[12:1],1,,1,8/2,,,6,5,6,,6,5,4,3,2,
1-5[12:1]/7-3[12:1],8,,8,1/7,,,3,4,3,,3,4,5,6,7,
8-4[12:1]/2-6[12:1],1,,1,8/2,,,6,5,6,,6,5,4,3,2,
1-5[12:1],5,3,7,{8}1,{16}2,3,4,5,,7/5,4,3,2,1,
8-4[12:1],4,6,2,{8}8,{16}7,6,5,4,,2/4,5,6,7,8,
1-5[12:1],5,3,7,{8}1,{16}8,7,6,5,,7/5,4,3,2,1,
{2}8/Cfh[1:1],{8}5,6h[16:1],7h[16:1],8h[16:1],
{4}1bx<3[4:1],3p5[4:1],{2}5xq7[4:1]*>2[8:1],
{4}8>3[8:1],8/4<7[8:1],{8}4>1[8:1],8<5[8:1],4z8[16:3],8,
{4}4b,{16}2x/6x<1[12:1],{32},,,,4,3,{16}2/6>3[12:1],{32},,,,2,1,{8}8/6pp1[8:3],7,
{16}6/2>5[8:1],1,,,{4}2,6>3[8:1]*q8[4:1],6,
{16}1xqq4[8:3],2,{8}3>8[12:1],1,3<6[12:1],,3x,{16}7,6/7,,,8pp5[8:3],
7,{8}6<1[12:1],8,6>3[12:1],,6x,2/1<5[16:3],4/3,
{4}1/7h[8:1],7/8>4[16:3],{8}8/4,5,{16}7s3[8:9],8,,,5,
6,4,5,{8}3,{16}8,2,1,1,4,4,{4}7-3[8:1],
{2}7b`Cf,{16}8,,,1,,7,,3,
{4}5b/Cf,5>2b[8:1],{8}5<8b[8:1],1>4b[8:1],5s1b[16:3],1,
{4}5b`Cf,{16}7x/3x>8b[12:1],{32},,,,5,6,{16}7/3<6b[12:1],{32},,,,7,8,{8}1/3qq8b[8:3],2,
{16}3/7<4b[8:1],8,,,{4}7,3<6b[8:1]*p1b[4:1],3,
{16}8bpp5[8:3],7,{8}6<1b[12:1],8,6>3b[12:1],,6x,{16}2,2,1,2,
1bqq4[8:3],2,{8}3>8b[12:1],1,3<6b[12:1],,3x,7/8>4b[16:3],5/6,
{16}8b/6,7,{8}8,2/1<5b[16:3],3,1b/5,4,{16}2z6b[8:9],1,,,4b,
3,5,4,{8}6,{16}1,7,8,8,5,5,{4}2-6[8:1],
{1}2b`Cf,
4h[1:1],
{8}6h[4:3],{16},,,,,,,,,,,,3,5,
{2}4h[2:1],5h[2:1],
{8}1,{16}4-1[2:1],3,,,{8}4h[8:3],{16},,,,,,,,3,
4,8,7h[8:1],,5h[8:1],,7h[16:5],,,1,2,{8}3h[16:3],{16}7,6,
{1}4/5-8[8:5],
{16}3,4,5,6,,,{8}8/7,{4}2/1,{16}5-1[1:2],4/6,3/7,2/8,
,,,,,,,,,,,,,,,,{1}5h[1:2],
E
