&title=First Dance
&artist=削除
&first=0
&des=ネギラメン
&wholebpm=174
&lv_6=13
&inote_6=(174)
{1},,
{4}
4b/5b,3h[4:1],4h[4:1],5h[4:1],6h[4:1],
{8}5,4,3h[2:1],,4,,2h[4:1],,4h[4:1],,5h[4:1],,
7h[4:1],,6,5,4-8[8:1],,1b>8[1:1],,,,,,,,,,,,1,1,
2-6[8:1],2,4,5-8[8:1],5,3,2>5[8:1],1,8,7>2[8:1],6,5,4-1[8:1],4h[8:3],,,
8b,,,,,5/6,6-3[8:1]/5,,2h[2:1],,,,{16}3,,3/4,,,4/5,,,5/6<2[4:1],,,,,,,,,,
3/4,,3-6[8:1]/4,,,,7h[8:3],,,,,,5h[16:3],,,6,5,,8-5[8:1]/4>6[8:3],,,,4/8,,,,,,,
,,,7/5,,7-3[8:1]/5,,,,5h[2:1],,,,,,,,6,,5/7,,,5/4,,,2<6[4:1]/4,,,,,,,,,,
4/5,,4/5-1[8:1],,,,7h[8:3],,,,,,3h[16:3],,,4,3,,5<8[8:1]/1>4[8:1],,,,
5bv2[8:1]/1bv6[8:1],,,,,,,,3-8[8:1],,4,,3,,7,6,5v8[8:1]/1v4[8:1],,,,1/5,,,,
6-1[8:1],,5,,6,,2,3,4h[8:1],,6,5h[8:1],,8,6h[8:1],,7,,7,,4,6,3,5,2h[8:1],,
4,3h[8:1],,5,4h[8:1],,6,,6/4,,3,4,2,4,1-5[8:1],,,,1/6,,8-4[8:1],,,,
8/3,,2h[8:1],,5,6,7v2[8:1]/3v6[8:1],,,,7/3,,,,1-6[8:1],,5,,1,,
,,7,5,7,5,6,4,6,4,5,3,5,3,4,2,4,2,3,1,3,1,4,8,4,8,5,7,5,7,4w8[8:1],6,4,6,,,,,
2b/6b,,4,5,,7,8,,2,3,4/8,,6,5,6,5,7,8>3[8:1],7,8,,4,5,6,7>6[8:3],4,5,6,7,,,,,,,,
1/8,,2/7,,4-8[8:1],5,3,6,4,,,,7,1,7,1,8h[8:1],,2,6h[8:1],,8v3[8:1],4h[8:1],,,8,{24}4,5,6,7b,,,
{16},5,4,6,5,7,6h[4:1],,,8,,8,6,7,5,6,4,5,3,4,2,3,1h[4:1],,,,
4,2,4,2,5,3,5,3,6,4,6,4,7,5,7,5,8,6,8,6,1,5,1,5,2,4,2,4,3-7[8:1],5,3,5,,
1,1,,7,8,,5,4V27[8:3],,8,7,6-3[8:1],,,,,,,,5,5,4,6,,8,8,,2,1,,4,5V72[8:3],,
1,2,3-6[8:1],,,,,,,,4,4,5,3,,1,1,,7,8,,6,5V37[8:3],,8,7,6-2[8:1],,,,,,,,
1,8,1,2/7,,6,5,,3,4,,2/6,,7,5,,2,4,,3/6,,8,5,,1,4,,3b/5h[16:5],,,,,
1-3[8:1],,,,1-5[8:1]/6,,,,1/7,,8-6[8:1],,8>3[8:1],,,,,,,,5,,7,6,5>1[4:1]/2,,,,
1<5[4:1],,,,5,,,,4,,3,,2/5,,6,,7/4,,8,,1<6[8:1]/4>1[8:1],,,,1-5[8:1]/4-7[8:1],,,,
,,,,8<5[8:1]/4>1[8:1],,,,8-3[8:1]/4-8[8:1],,,,,,,,2-4[8:1]/6-2[8:1],,,,2<7[8:1]/6,,,,
5,,4,,3qq4[8:3],,,,6,,,,7,,,,8-6[8:1]/4,,,,8-4[8:1]/3,,,,2/8,,1-3[8:1],,1<6[8:1],,,,
,,,,4,,2,3,4V68[4:1]/7,,,,8V24[4:1],,,,4,,,,5,,6,,4/7,,3,,2/5,,1,,4-7[8:1],,4,,
8-3[8:1],,8,,6,,6,,6,4,6,4,7,4,6,4,8,4,6,4,1b-5[8:1],,1bq1[8:2],,,,,,,,,,
5p8[8:1]*v2[8:1],,6,,5,,,,,,1/8,2/7,6v3[8:1]/3p7[8:1],,5/4,,3bV58[4:1]/6b,,,,
1,,1,,,,1,,2/7,,6,,5/4,,4-7[8:1],3,2-5[8:1],,4,,2,,8v5[8:1],7,6<4[4:1],,8,,6,,,,,,
1,2,3/7-5[8:1],,5-2[8:1],,7,,1b-6[8:1],,,,1b/4w8[8:1],,,,4b,,,,
2-6[8:1]/6,,7,,8h[4:1]/2,,,,5-1[8:1],,4,,3h[4:1]/5,,,,
2-6[8:1],,1,,8h[4:1]/2,,,,5-1[8:1],,6,,7/5<8[8:1],,,,5/2-5[8:1],,,,2/1,,,,
8,,1/7,,6,,2-5[8:1],,5-7[8:1],,2,,8-3[8:1],,,,8/5w1[8:1],,,,5b,,,,7/3,,2/6,,
{32}1,8,7,6,5,4,3,2,1,8,7,6,
{16}5b,,8-3[8:1],1,7,,8-5[8:1],,,,8/4-1[8:1],,,,4/5,,,,1-6[8:1],8,2,,1,,4,,
4b/7-3[8:1],,,,,,1b-5[16:1],,,6b-1[16:1],,,2b-6[16:1],,,
5b-2[16:1],,,7b-3[16:1],,,4b-7[16:1],,,8b-4[16:1],,,3b-8[16:1],,,
5,6,7h[4:1],,,,1,,8/7,,6,,5/1,,3h[4:1]/8,,,,1,,1/2,,3,,8,,4/8,,
6-8[8:1]/1h[4:1],,,,6,,1,2,3-5[8:1],,1,,3>8[8:1],,,,3,,6,5,
4h[16:3],,,8h[16:3],,,5,,
{4}5b/1b>7[16:14],,,6<5[32:28],,,4<1[32:24],,,1>4[32:14],,,
{8}5,6,7,8,1-4[8:1],2,5,6,7,8,1v4[8:1],2,5,6,7,8,1>4[8:1],2,5,6,7,8,1-5[8:1]*-6[8:1],2,,
,,,1q6[4:1],,6>1[8:3],,,,,{16}8,7,6p1[4:1],,,,1>6[8:3],,,,8,,8,,8<1[2:1],,,,5,,,,
8,,,,7,,7,,6,,6,,5,,5,,4,,4,,3s7[4:1],,3,,,,,,8h[8:3],,,,1-5[8:1],,7,,2h[4:1],,,,4v2[8:1],,2V46[4:1]*V85[4:1],,1h[16:1],,,,,,,,
8h[4:1]/3h[4:1],,,,,,5/3h[4:1],,6,,6,,7h[4:1]/5h[4:1],,,,,,
7h[4:1]/1,,2,,2,,1h[4:1]/3h[4:1],,,,,,5h[4:1]/3,,4,,4,,6pp5[8:3],,,,2,,2,,,,,,
6h[4:1]/1h[4:1],,,,,,3/1h[4:1],,4,,4,,5h[4:1]/3h[4:1],,,,,,
5h[4:1]/7,,8,,8,,7h[4:1]/1h[4:1],,,,,,3h[4:1]/1,,2,,2,,4pp2[8:3],,,,8,,8,,,,,,
8h[4:1]/4h[4:1],,,,,,6h[4:1]/2,,1,,8,,5h[4:1]/7h[4:1],,,,,,
4h[4:1]/6,,5,,3,,2h[4:1]/5h[4:1],,,,,,3h[4:1]/1,,8,,7,,6qq3[8:3],,,,1,,1,,,,,,
2-7[8:1]/4,,,,,,5,,6,,6,,8/6-3[8:1],,,,,,1,,2,,2,,2/4-7[8:1],,,,,,
8,,1,,1,,7s3[4:1]/1v4[4:1],,,,,,,,,,,,
{24}
2/6h[4:2],3,4,5-1[8:1],,,,,,,,,,,,,,,
3h[2:1]/7,6,5,4-8[8:1],,,,,,,,,,,,,,,
7h[2:1]/2,3,4,5-1[8:1],,,,,,,,,,,,,,,
8v5[8:1]/1,7,6,5-2[8:1],,,,,,,,,,,,,,,
3h[2:1]/6,7,8,1-5[8:1],,,,,,,,,,,,,,,
5h[2:1]/1,2,3,4-8[8:1],,,,,,,,,,,,,,,
1h[2:1]/6,5,4,3-7[8:1],,,,,,,,,,,,,,,
8/1v4[8:1],2,3,4v7[8:1],,,,,,,,,,,,,,,
8v5[8:1]/1,7,6,5v3[8:1],,,,,,,,,,,,,,,
8v5[8:1]/1,7,6,5v2[8:1],,,,,,,,,,,,,,,
8v5[8:1]/1,7,6,5-1[8:1],,,,,,,,,,,,,,,
8v5[8:1]/1,7,6,5v8[8:1]*v2[8:1],,,,,,,,,,,,,,,
8/1v4[8:1],2,3,4-7[8:1]*v6[8:1],,,,,,,,,,,,,,,
8/1v4[8:1],2,3,4v7[8:1]*q8[8:1],,,,,,,,,,,,,,,
8/1v4[8:1],2,3,4qq8[16:4]*pp1[16:4],,,,,,,,,,,,,,,
{16}6h[16:7]/2h[16:7],,,,{32},,,,,,,,2/6,3/7,4/8,1/5,2s6[8:17]/6z2[8:12],
