&title=Astral Quantization
&artist=DJ Grimoire
&first=0.06
&des=tutuw002
&lv_5=14+
&lv_7=14+
&inote_5=(185){1},8V24s8[4:14]*V64z8[4:14],,,,
{8}6h[8:1],5h[16:1],6h[8:1],5h[16:1],6h[8:1],5h[16:1],6h[8:1],5h[16:1],
6h[8:1],5h[16:1],6h[8:1],5h[16:1],6h[8:1],5h[16:1],7h[8:1],3h[16:1],
8h[8:1],1h[16:1],8h[8:1],1h[16:1],8h[8:1],1h[16:1],8h[8:1],1h[16:1],
8h[8:1],1h[16:1],7h[8:1],2h[16:1],6h[8:1],1h[16:1],{16}5<2V46[4:2],2,4,3,
5-3[8:1],,,,5x-1[8:1]b,,,,,,,,6<1[8:1],5,7h[8:1],,
,,,,3>8[8:1],4,2h[8:1],,,,,,3,5,4,5,
{8}4h[8:1],6h[16:1],3h[8:1],6h[16:1],4h[8:1],6h[16:1],3h[8:1],6h[16:1],
2h[8:1],7h[16:1],1h[8:1],7h[16:1],2h[8:1],7h[16:1],1,7h[16:1]/3,
{16}4,6,5,6,3,6,5,6,2-6[8:1],6,5,6,2,,,,
5,3,4,3,6,3,4,3,7-3[8:1],3,4,3,7,,,,
2,8,1,8,3,8,1,8,4-8[8:1],8,1,8,4,,,,
7,2,1,2,6,2,1,2,5,2,1,2,4,5,6,7,
3,8,2,8,4,8,2,8,5-1-3[16:3],8,2,8,5,,,,
6,4,5,4,7,4,5,4,8,1,7,,3,4,2,,
6,5,7,,2,1,3,,7,8,7,8,6,1,6,1,
{64}A7,D7,A6,D6,A5,D5,A4,D4,{48}A3,D3,A2,D2,A1,D1,{32}A8,D8,A7,D7,{24}A6,D6,A5,{16}D5,A4,,,C,,,,
3,4,3,,6,5,6,,2,3,2,,7,6,7,,
1,2,1,,8,7,8,,2,1,3h[8:1],,8-3-6[4:1],7,6,5,
4/8,,7-2-5[4:1],,,,7/4,,1,,1,2,3/6,,4/7,,
8-4[8:1],4,8-2[8:1]b,4,8-6-3[4:1],,,,,,,,2-4[8:1],1,2,1,
2h[4:1],,,,{32}E7,B6,B5,E5,{16}3,3,5-8[8:1]*-2[8:1],4,6,,5<1[16:3],,,,
5,,4<6<8[16:3],3,2,,4,,3<4<5<6<7[16:3],2,1,,3,,,,
1,8,,8,3,3,5,5,4,6,2h[8:1],,7,3,5,1,
8,8,8,8,B6/E7,B2/E3,A5/E5,A1/E1,E6,E2,A7,A3,8,1,{32}7,6,5,4,
{4}3h[4:1]b/7h[8:1]b,{16}7,6,8,,1,2,8,,4,5,3,5,
2,1,4,,6,5,7,,4,5,2,,8-2-6[4:1],1,7,1,
8,,,,3<8[4:1],3,4,,3/1h[8:1],,,,1,2,3,4,
5/7h[8:1],,4,4,5v8[8:1]*v2[8:1],5,3,,5,,,,1/8x,7,6,5,
{8}3h[8:1]/4h[8:1]b,,2/5,2,2/1,2,{16}2/7,3,4,,
{8}5h[8:1]b/6h[8:1],,7/8,7,7/4,7,{16}7/2,6,5,,
2h[8:1]/4h[8:1]b,,,,1,8,1,8,7h[8:1]/5h[8:1]b,,,,5,4,5,4,
8xh,4,2h,8x,6h,2,4xh,6,8h,4x,2h,8,Ch[64:1]f,,,,
1-5[8:1],,5,,1,,6,6,4h[8:1],,5,3h[8:1],,4,2,,
8,8,1,1h[8:1],,7,4>7[4:1],5,3,4,4h[4:1],,,,,,
5,5,3h[4:1],,,,2,2,4-1[8:1],,6,6-2[8:1],4-6-8-2[4:1],,6,6,
4,,,,5h[8:1],,3,3,4,,8,7,,1,2h[8:1],,
4h[8:1],,6h[8:1],,7,7,8h[8:1],,3h[8:1],,1,8,2,,7,5,
,2,4,,6<1[8:1],6,3-5[8:1],3,6-4[8:1],,3>8[8:1],,6,,3,,
7,,1,8,2,,5,5,4<8[8:1],6,6,,4/2h[8:1],,,,
1,1,3,,8,8,6,,E2,E6,E3,E7,{64}A3,D4,A4,D5,A5,D6,A6,D7,A7,D8,A8,D1,,,,,
{16}2h[8:1]x/6h[8:1]b,,,,5-1[8:1],4,5,,5/7,,8,8,2,2,8,,
3,4,1,,6,5,8,,2,1,3-8[8:1],6,5<2[4:1],7,3,,
5,,,,4<8[8:1]b,4,3,2,{32}4x>8[8:1]b,A5,A6,A7,{8}A8,{32}4xV68-2[4:1],A3,A2,A1,{8}A8,
4,,{16}3-7[8:1],3h[16:3],1,,,,2-6[8:1],2h[16:3],8,,,,
2,5,4,5,7,5,4,5,2,5,4,5,7b,,,,
6,1,8,1,3,1,8,1,6,1,8,1,3b,,,,
6,5,6,5,4h[8:1]/8h[8:1]b,,,,3,4,3,4,1h[8:1]b/5h[8:1],,,,
8xh,4,6h,8x,2h,6,4xh,2,{64}A8,D8,A7,D7,A6,D6,A5,D5,{48}A4,D4,A3,D3,A2,D2,{4}A1f,
{16}6h,5h,6h,,3h,4h,3h,,6h,5h,7h,,3h,4h,2h,,
7h,5h,7h,,2h,4h,2h,,7h,5h,6h,,2h,4h,3h,,
6h,6h,5h,,3h,3h,4h,,7h,5h,8h,,2h,4h,1h,,
6h[32:1],4h[32:1],8h,2h,5-7[8:1],1h,,1-5[16:1]b,5<3[4:1],,1h,,,,,,
6h,6h,4h,,3h,3h,5h,,7h,7h,5h,6h,3h[32:1],4h[32:1],2h,5h,
1h,1h,6h,,8h,8h,3h,,7h,8h,7h,,2h,1h,2h,5h,
3h,4h,2h,,7h,8h,6h,,2h,1h,3h,,7h,1h,5h,3h,
6h,2h,8h,,2h,6h,4h,8h,3>8>3[4:1],5h[32:1],3h[32:1],5h[32:1],3h,,,,
Ch[64:1],,,,5h,5h,5h,,3h,3h,3h,,6h,6h,6h,,
2h,2h,4h,,7h,7h,5h,,1h,1h,3h,,8h,6h,4h,8h,
3h,5h,1h,,7h,1h,5h,,2h,8h,4h,,6q2[8:1]b,4h,8h,2h,
{32}6x>2[8:1]b,B7,B8,B1,{8}E2,{32}6xh,A5,A4,A3,{8}A2,{16}8h[32:1],1h[32:1],8h[32:1],1h[32:1],8h,1h,8h,,
{16}6,1,1,1,4,1,1,1,6,1,1,1,4,,,,
3,8,8,8,5,8,8,8,3,8,8,8,{8}5-1[8:1],,
5/3-8[8:1],,3/7,,6/2,4/5,,8,
{4}5h[4:2]b/4h[4:1]b,,,B1/B8/E1f,
5b-1[8:1]b/7b,5b/2b-5[8:1]b,2b/8b-3[8:1]b,8b/4b-8[8:1]b,
4b/6b-1[8:1]b,6b/2b,{32}8b-4[16:1]b,1b,{16}8b,,8b,{8}6b,2b/1b,
4b-8[8:1]b/5b-1[8:1]b,3b/6b,{4}4b-2[8:1]b/5b,4b-7[8:1]b/7b,4b/1b-5[8:1]b,
1b/6b-2[8:1]b,6b/8b-5[8:1]b*-3[8:1]b,8b,Ch[64:1],
1b-4[8:1]b/3b,1b-6[8:1]b/7b,1b/3b,{16}4b-8[8:1]b/5b,4b/6b,,3b/4b,
{4}2b-5[8:1]b/4b,2b/6b-2[8:1]b,{16}1b/6b,,8b,7b,,5b,4b,5b,
{4}3b-8[8:1]b/6b-3[8:1]b,3b/6b,{8}5b/7b,2b-6b[8:1]/4b,,2b/8b,
7h[4:2]b,1,1,1,1-5[8:1],2,3`Cf,4,
6h[4:6],,{32}B1,B2,B3,B4,B5,B6,B7,B8,B1,B2,B3,B4,B5,B6,B7,B8,B1,B2,B3,B4,B5,B6,B7,B8,
E2,E3,E4,E5,E6,E7,E8,E1,E2,E3,E4,E5,E6,E7,E8,E1,1x,2x,3x,4x,5x,6x,7x,8x,{24}1,2,3,{16}5,5,
1-6[8:1],,6,6,1-4[8:1],,5-8[8:1],5,1,,5,,2,2,1-5[8:1]/3,,
7-3[8:1],8,1>4[8:1]/6,,7V53[8:1],,1,,7,,8,,8/4,1,2,3,
4/8-3[8:1],,3,3,8-5[8:1],,4-1[8:1],4,8,,4,,7,7,8-4[8:1]/6,,
2-6[8:1],1,8<5[8:1]/3,,2V46[8:1],,8,,2,,1,,1/5,8,7,6,
5/1,,3,4,1-5[8:1],,3-7[8:1],5,1,,3,,4,8,2h[8:1],,
{4}Ch[4:1],{64}A1,D2,A2,D3,A3,D4,A4,D5,{48}A5,D6,A6,{32}D7,A7,{24}D8,A8,D1,{16}A1,D2,{12}6,6,6,
{16}4/5,,3,4,3h[16:1],,3,4,3h[16:1],,3,4,3h[16:1],,3,4,
2/5h[8:1],,3,3,3h[16:1],,3,3,{8}3h[16:3],5h[8:1],8b,,
{16}6/1h[8:1],,7,7,7h[16:1],,7,7,7h[16:1],,7,7,B6/E6,,B4/E5,,
1h[16:1]/7h[16:1],,8,8,1h[16:1]/7h[16:1],,8,8,1/7,3,5,7,{8}1b/Cf,,
1b-6[8:1]b/8,2b/7,{32}1b-4[8:1]b/8h[8:1],E1,B8,B7,E7,,,,1b-5[8:1]b/7h[8:1],E2,B2,B3,E4,,,,1b/8-3[8:1],B1,C,B5,A5,,,,
8b-5[8:1]/1h[8:1],E1,B1,B2,E3,,,,8b-4[8:1]/2h[8:1],E8,B7,B6,E6,,,,8/1h[8:1],B8,C,B4,{8}A4,2h[8:1]/6h[8:1],,
3b-8[8:1]/7b-4[8:1],,3b/7b,,1b/5b,2b-7-2[4:1]b/6b-3-6[4:1]b,,2b/6b,
{2}A8/E1/E8/B1/B7/B2/Cf/B6/B3/B5/E4/E5/A4,{16}1,8,1,8,{32}1,2,3,4,5h[64:1],6h[64:1],7h[64:1],8h[64:1],
{16}1,6,5,6,2,5,4,5,1,4,8,5,7,6,5,7,8,7,4,8,1,8,2,7,1,2,3,4,5/1,6,7,8,
6,4,5,4,7,3,4,3,8,2,1,2,3,1,5,1,8,1,6,8,7,8,1,8,2-6-4[8:1],8,3,8,2,,1,,
2x,5,4,5,3x,6,5,6,4x,7,3,8,2x,1,8,6,5x,6,1,5,4x,5,3,6,2x,3,4,5,6/2x-5[8:1],7,8,1,
{8}2/8-4[8:1],8,8/3-8[8:1],3,3/7-4[8:1],7,7/1w5[8:1]b,,
{4}1bs5V71[4:2]*z5V31[4:2],,,D1/D2/A1f,
{8}3-8[8:1]/7b-4[8:1],,3/7b,,6b-1[8:1],2-5[8:1],6b,2,
8b>3[8:1],4,8b<5[8:1],4,8b/3-8[8:1],,3/5b,6b,
7v4[8:1]/1bv4[8:1],,7/1b,,2b-5[8:1],6-2[8:1],2b,6b,
8b-3[8:1],5-8[8:1],8b,5,2b,4b/7b,1/Cf,,
2b-5[8:1]/6-1[8:1],,2b/6,,7/3b-8[8:1],2,3b/7-4[8:1],6,
7/2b-6[8:1],1,2b/5<2[4:1],4,5/3b-6[8:1]b,3b,B4f,,
1v6[8:1]/5v2[8:1],,1/5,,3/7,4-1[8:1]/8-5[8:1],,4b/8b`E7/B6/Cf/B2/E3,
,2/6b,3b/4,5/7b,1/2b,4/6b,1b/5,2/7b,
{16}3,4,3h[8:1],,5,,5,,3,4,3h[8:1],,5,,5,,
6,5,6h[8:1],,4,,4,,6,5,6h[8:1],,4,,4,,
3,4,3h[8:1],,5,4,5,4,6,5,6h[8:1],,4,5,4,5,
3,4,2h[8:1],,4,3,5,4,6,5,7h[8:1],,4,5,3,4,
{8}2h[16:1],2,2h[16:1]/8,2h[16:1],2h[16:1]/4,2,2h[16:1]/6,2h[16:1],
2/7h[16:1],7,7h[16:1]/1,7h[16:1],7h[16:1]/5,7,7h[16:1]/3,7h[16:1],
{16}1,2,3/7,4,5/1,8,7/3,6,1/5,2,3/7,4,5/1,8,7/3,6,
1x,5h,7,1xh,3,7h,5x,3h,1,5xh,7,1h,3xs7[8:1]b*z7[8:1]b,,,,
E
&inote_7=(185){1},8V24s8[4:14]*V64z8[4:14],,,,
{8}6h[8:1],5h[16:1],6h[8:1],5h[16:1],6h[8:1],5h[16:1],6h[8:1],5h[16:1],
6h[8:1],5h[16:1],6h[8:1],5h[16:1],6h[8:1],5h[16:1],7h[8:1],3h[16:1],
8h[8:1],1h[16:1],8h[8:1],1h[16:1],8h[8:1],1h[16:1],8h[8:1],1h[16:1],
8h[8:1],1h[16:1],7h[8:1],2h[16:1],6h[8:1],1h[16:1],{16}5<2V46[4:2],2,4,3,
5-3[8:1],,,,5x-1[8:1]b,,,,,,,,6<1[8:1],5,7h[8:1],,
,,,,3>8[8:1],4,2h[8:1],,,,,,3,5,4,5,
{8}4h[8:1],6h[16:1],3h[8:1],6h[16:1],4h[8:1],6h[16:1],3h[8:1],6h[16:1],
2h[8:1],7h[16:1],1h[8:1],7h[16:1],2h[8:1],7h[16:1],1,7h[16:1]/3,
{16}4,6,5,6,3,6,5,6,2-6[8:1],6,5,6,2,,,,
5,3,4,3,6,3,4,3,7-3[8:1],3,4,3,7,,,,
2,8,1,8,3,8,1,8,4-8[8:1],8,1,8,4,,,,
7,2,1,2,6,2,1,2,5,2,1,2,4,5,6,7,
3,8,2,8,4,8,2,8,5-1-3[16:3],8,2,8,5,,,,
6,4,5,4,7,4,5,4,8,1,7,,3,4,2,,
6,5,7,,2,1,3,,7,8,7,8,6,1,6,1,
{64}A7,D7,A6,D6,A5,D5,A4,D4,{48}A3,D3,A2,D2,A1,D1,{32}A8,D8,A7,D7,{24}A6,D6,A5,{16}D5,A4,,,C,,,,
3,4,3,,6,5,6,,2,3,2,,7,6,7,,
1,2,1,,8,7,8,,2,1,3h[8:1],,8-3-6[4:1],7,6,5,
4/8,,7-2-5[4:1],,,,7/4,,1,,1,2,3/6,,4/7,,
8-4[8:1],4,8-2[8:1]b,4,8-6-3[4:1],,,,,,,,2-4[8:1],1,2,1,
2h[4:1],,,,{32}E7,B6,B5,E5,{16}3,3,5-8[8:1]*-2[8:1],4,6,,5<1[16:3],,,,
5,,4<6<8[16:3],3,2,,4,,3<4<5<6<7[16:3],2,1,,3,,,,
1,8,,8,3,3,5,5,4,6,2h[8:1],,7,3,5,1,
8,8,8,8,B6/E7,B2/E3,A5/E5,A1/E1,E6,E2,A7,A3,8,1,{32}7,6,5,4,
{4}3h[4:1]b/7h[8:1]b,{16}7,6,8,,1,2,8,,4,5,3,5,
2,1,4,,6,5,7,,4,5,2,,8-2-6[4:1],1,7,1,
8,,,,3<8[4:1],3,4,,3/1h[8:1],,,,1,2,3,4,
5/7h[8:1],,4,4,5v8[8:1]*v2[8:1],5,3,,5,,,,1/8x,7,6,5,
{8}3h[8:1]/4h[8:1]b,,2/5,2,2/1,2,{16}2/7,3,4,,
{8}5h[8:1]b/6h[8:1],,7/8,7,7/4,7,{16}7/2,6,5,,
2h[8:1]/4h[8:1]b,,,,1,8,1,8,7h[8:1]/5h[8:1]b,,,,5,4,5,4,
8h,1,8,1h,8,1,8h,1,8,1h,8,1,Ch[64:1]f,,,,
1-5[8:1],,5,,1,,6,6,4h[8:1],,5,3h[8:1],,4,2,,
8,8,1,1h[8:1],,7,4>7[4:1],5,3,4,4h[4:1],,,,,,
5,5,3h[4:1],,,,2,2,4-1[8:1],,6,6-2[8:1],4-6-8-2[4:1],,6,6,
4,,,,5h[8:1],,3,3,4,,8,7,,1,2h[8:1],,
4h[8:1],,6h[8:1],,7,7,8h[8:1],,3h[8:1],,1,8,2,,7,5,
,2,4,,6<1[8:1],6,3-5[8:1],3,6-4[8:1],,3>8[8:1],,6,,3,,
7,,1,8,2,,5,5,4<8[8:1],6,6,,4/2h[8:1],,,,
1,1,3,,8,8,6,,E2,E6,E3,E7,{64}A3,D4,A4,D5,A5,D6,A6,D7,A7,D8,A8,D1,,,,,
{16}2h[8:1]x/6h[8:1]b,,,,5-1[8:1],4,5,,5/7,,8,8,2,2,8,,
3,4,1,,6,5,8,,2,1,3-8[8:1],6,5<2[4:1],7,3,,
5,,,,4<8[8:1]b,4,3,2,{32}4x>8[8:1]b,A5,A6,A7,{8}A8,{32}4xV68-2[4:1],A3,A2,A1,{8}A8,
4,,{16}3-7[8:1],3h[16:3],1,,,,2-6[8:1],2h[16:3],8,,,,
2,5,4,5,7,5,4,5,2,5,4,5,7b,,,,
6,1,8,1,3,1,8,1,6,1,8,1,3b,,,,
6,5,6,5,4h[8:1]/8h[8:1]b,,,,3,4,3,4,1h[8:1]b/5h[8:1],,,,
8h,1,8,1h,8,1,8h,1,{64}A8,D8,A7,D7,A6,D6,A5,D5,{48}A4,D4,A3,D3,A2,D2,{4}A1f,
{16}6h,5h,6h,,3h,4h,3h,,6h,5h,7h,,3h,4h,2h,,
7h,5h,7h,,2h,4h,2h,,7h,5h,6h,,2h,4h,3h,,
6h,6h,5h,,3h,3h,4h,,7h,5h,8h,,2h,4h,1h,,
6h[32:1],4h[32:1],8h,2h,5-7[8:1],1h,,1-5[16:1]b,5<3[4:1],,1h,,,,,,
6h,6h,4h,,3h,3h,5h,,7h,7h,5h,6h,3h[32:1],4h[32:1],2h,5h,
1h,1h,6h,,8h,8h,3h,,7h,8h,7h,,2h,1h,2h,5h,
3h,4h,2h,,7h,8h,6h,,2h,1h,3h,,7h,1h,5h,3h,
6h,2h,8h,,2h,6h,4h,8h,3>8>3[4:1],5h[32:1],3h[32:1],5h[32:1],3h,,,,
Ch[64:1],,,,5h,5h,5h,,3h,3h,3h,,6h,6h,6h,,
2h,2h,4h,,7h,7h,5h,,1h,1h,3h,,8h,6h,4h,8h,
3h,5h,1h,,7h,1h,5h,,2h,8h,4h,,6q2[8:1]b,4h,8h,2h,
{32}6x>2[8:1]b,B7,B8,B1,{8}E2,{32}6xh,A5,A4,A3,{8}A2,{16}8h[32:1],1h[32:1],8h[32:1],1h[32:1],8h,1h,8h,,
{16}6,1,1,1,4,1,1,1,6,1,1,1,4,,,,
3,8,8,8,5,8,8,8,3,8,8,8,{8}5-1[8:1],,
5/3-8[8:1],,3/7,,6/2,4/5,,8,
{4}5h[4:2]b/4h[4:1]b,,,B1/B8/E1f,
5b-1[8:1]b/7b,5b/2b-5[8:1]b,2b/8b-3[8:1]b,8b/4b-8[8:1]b,
4b/6b-1[8:1]b,6b/2b,{32}8b-4[16:1]b,1b,{16}8b,,8b,{8}6b,2b/1b,
4b-8[8:1]b/5b-1[8:1]b,3b/6b,{4}4b-2[8:1]b/5b,4b-7[8:1]b/7b,4b/1b-5[8:1]b,
1b/6b-2[8:1]b,6b/8b-5[8:1]b*-3[8:1]b,8b,Ch[64:1],
1b-4[8:1]b/3b,1b-6[8:1]b/7b,1b/3b,{16}4b-8[8:1]b/5b,4b/6b,,3b/4b,
{4}2b-5[8:1]b/4b,2b/6b-2[8:1]b,{16}1b/6b,,8b,7b,,5b,4b,5b,
{4}3b-8[8:1]b/6b-3[8:1]b,3b/6b,{8}5b/7b,2b-6b[8:1]/4b,,2b/8b,
7h[4:2]b,1,1,1,1-5[8:1],2,3`Cf,4,
6h[4:6],,{32}B1,B2,B3,B4,B5,B6,B7,B8,B1,B2,B3,B4,B5,B6,B7,B8,B1,B2,B3,B4,B5,B6,B7,B8,
E2,E3,E4,E5,E6,E7,E8,E1,E2,E3,E4,E5,E6,E7,E8,E1,1x,2x,3x,4x,5x,6x,7x,8x,{24}1,2,3,{16}5,5,
1-6[8:1],,6,6,1-4[8:1],,5-8[8:1],5,1,,5,,2,2,1-5[8:1]/3,,
7-3[8:1],8,1>4[8:1]/6,,7V53[8:1],,1,,7,,8,,8/4,1,2,3,
4/8-3[8:1],,3,3,8-5[8:1],,4-1[8:1],4,8,,4,,7,7,8-4[8:1]/6,,
2-6[8:1],1,8<5[8:1]/3,,2V46[8:1],,8,,2,,1,,1/5,8,7,6,
5/1,,3,4,1-5[8:1],,3-7[8:1],5,1,,3,,4,8,2h[8:1],,
{4}Ch[4:1],{64}A1,D2,A2,D3,A3,D4,A4,D5,{48}A5,D6,A6,{32}D7,A7,{24}D8,A8,D1,{16}A1,D2,{12}6,6,6,
{16}4/5,,3,4,3h[16:1],,3,4,3h[16:1],,3,4,3h[16:1],,3,4,
2/5h[8:1],,3,3,3h[16:1],,3,3,{8}3h[16:3],5h[8:1],8b,,
{16}6/1h[8:1],,7,7,7h[16:1],,7,7,7h[16:1],,7,7,B6/E6,,B4/E5,,
1h[16:1]/7h[16:1],,8,8,1h[16:1]/7h[16:1],,8,8,1/7,3,5,7,{8}1b/Cf,,
1b-6[8:1]b/8,2b/7,{32}1b-4[8:1]b/8h[8:1],E1,B8,B7,E7,,,,1b-5[8:1]b/7h[8:1],E2,B2,B3,E4,,,,1b/8-3[8:1],B1,C,B5,A5,,,,
8b-5[8:1]/1h[8:1],E1,B1,B2,E3,,,,8b-4[8:1]/2h[8:1],E8,B7,B6,E6,,,,8/1h[8:1],B8,C,B4,{8}A4,2h[8:1]/6h[8:1],,
3b-8[8:1]/7b-4[8:1],,3b/7b,,1b/5b,2b-7-2[4:1]b/6b-3-6[4:1]b,,2b/6b,
{2}A8/E1/E8/B1/B7/B2/Cf/B6/B3/B5/E4/E5/A4,{16}1,8,1,8,{32}1,2,3,4,5h[64:1],6h[64:1],7h[64:1],8h[64:1],
{16}1,6,5,6,2,5,4,5,1,4,8,5,7,6,5,7,8,7,4,8,1,8,2,7,1,2,3,4,5/1,6,7,8,
6,4,5,4,7,3,4,3,8,2,1,2,3,1,5,1,8,1,6,8,7,8,1,8,2-6-4[8:1],8,3,8,2,,1,,
2x,5,4,5,3x,6,5,6,4x,7,3,8,2x,1,8,6,5x,6,1,5,4x,5,3,6,2x,3,4,5,6/2x-5[8:1],7,8,1,
{8}2/8-4[8:1],8,8/3-8[8:1],3,3/7-4[8:1],7,7/1w5[8:1]b,,
{4}1bs5V71[4:2]*z5V31[4:2],,,D1/D2/A1f,
{8}3-8[8:1]/7b-4[8:1],,3/7b,,6b-1[8:1],2-5[8:1],6b,2,
8b>3[8:1],4,8b<5[8:1],4,8b/3-8[8:1],,3/5b,6b,
7v4[8:1]/1bv4[8:1],,7/1b,,2b-5[8:1],6-2[8:1],2b,6b,
8b-3[8:1],5-8[8:1],8b,5,2b,4b/7b,1/Cf,,
2b-5[8:1]/6-1[8:1],,2b/6,,7/3b-8[8:1],2,3b/7-4[8:1],6,
7/2b-6[8:1],1,2b/5<2[4:1],4,5/3b-6[8:1]b,3b,B4f,,
1v6[8:1]/5v2[8:1],,1/5,,3/7,4-1[8:1]/8-5[8:1],,4b/8b`E7/B6/Cf/B2/E3,
,2/6b,3b/4,5/7b,1/2b,4/6b,1b/5,2/7b,
{16}3,4,3h[8:1],,5,,5,,3,4,3h[8:1],,5,,5,,
6,5,6h[8:1],,4,,4,,6,5,6h[8:1],,4,,4,,
3,4,3h[8:1],,5,4,5,4,6,5,6h[8:1],,4,5,4,5,
3,4,2h[8:1],,4,3,5,4,6,5,7h[8:1],,4,5,3,4,
{8}2h[16:1],2,2h[16:1]/8,2h[16:1],2h[16:1]/4,2,2h[16:1]/6,2h[16:1],
2/7h[16:1],7,7h[16:1]/1,7h[16:1],7h[16:1]/5,7,7h[16:1]/3,7h[16:1],
{16}1,2,3/7,4,5/1,8,7/3,6,1/5,2,3/7,4,5/1,8,7/3,6,
1h,8,1,8h,1,8,1h,8,1,8h,1,8,1s5[8:1]b*z5[8:1]b,8,1h,8,E
