&title=Superlative
&artist=初星学園&siqlo&秦谷美鈴
&first=0
&des=电你们所有人前列腺
&lv_5=13
&inote_5=
(155){4},,,,,,,,3h[8:1],
3h[8:1],3h[8:1],3h[8:1],
3h[8:1],3h[8:1],{8}2-4[8:1],5,,,{4}6h[8:1],
6h[8:1],6h[8:1],6h[8:1],
6h[8:1],6h[8:1],{8}7-5[8:1],4,,,{4}2h[8:1],
2h[8:1],5h[8:1],5h[8:1],
4h[8:1],5h[8:1],{8}3-5[8:1],6,,,{4}7h[8:1],
7h[8:1],4h[8:1],4h[8:1],
5h[8:1],5h[8:1],{8}4,4,5,6,
{4}4/7bv6-4[2:1],,,2bv3-5[2:1],
,,,B1f/6b-4-7-3[2:3],
,,,,{1}2h[1:1],
{16}4,,,3,{8}5-7[8:1],3,{2}5-3[8:1],
{16}8,,,7,{8}1-3[8:1],7,{2}1-7[8:1],
{8}4-2[8:1],4-6[8:1],,,1-4[8:1],1-6[8:1],{16},,,,3,
2,1,8,4,5,6,7,{4}4/8z4[8:3],2-6[8:1],
2b/Cf,{8}8xV61[4:1],1,{2}8/2V41[4:1],
{4}7b,{8}7<2[4:1]/2>7[4:1],1/8,{2}2/7,
{4}8/1h[4:1],{16}4,2,,2,{4}8h[4:1],{16}5,7,,7,
{4}3-5[8:1]/6-4[8:1],3/6,{8}3/6,2,3/6,7,
{4}4b/8b,{8}1x-4-2[4:1],8,{2}1/7-4-6[4:1],
1bs5b[4:1],{8}7,8,1,2,
{4}3/6h[4:1],{16}5,7,,7,{4}3h[4:1],{16}4,2,,2,
{4}7v5[8:1],1v3[8:1],{2}4xw8b[8:1],
{4}2h[4:1],{16}7-4[8:1],3,7,3,{4}7,{16}1-6[8:1],6,1,6,
{4}1-4[8:1],5-2[8:1]*-8[8:1],{2}B3/Cf/B7,
{4}7h[4:1],{16}5-2[8:1],8,5,8,{4}5,{16}6-1[8:1],1,6,1,
{4}6-3[8:1],2-5[8:1]*-7[8:1],{2}B4/Cf/B8,
{16}4,6,4,6,4,6,{8}2h[8:1],{16}5,3,5,3,5,3,{8}7h[8:1],
4-1[8:1],8,,6-1[8:1],{4}2,3bqq6[2:3]*q5[2:3],
,,,,,,,4h[32:1],
5,6/3,{16}4-8[8:1],5-1b[16:1],3,6,,,,,{8}7h[4:1]/2b-6[8:1],
3,,,3h[4:1]/8b-4[8:1],7,,,2/6-4[8:1],
{16}1-4[8:1],1,{4}6<3b[4:1],{2}6b,
{8}4b/6,{16}3,5,2,6,3,5,{8}1b,{16}6,5,{8}6-4[8:1],7,
{1}1-6-2-4b[2:1],
{8}7h[4:1]/2b>5[8:1],1,,,8b,6pp5[8:3]/2>5[8:1],,6/2,
,,,1,{4}3qq8[8:3]/7<4[8:1],7/3,
{8}5,6,7,8,1-6[8:1],2,{4}3/1,
{8}4,3,2,1,8-3[8:1],7,{4}8/6,
{8}4h[4:1]/7b-3[8:1],8,,,{4}2b-6[8:1]/6b-4[8:1],2/Cf/6-2[8:1],
,7-4[8:1]/3V17b[16:3],{2}3/7-2[8:1],
{8}6b,{16}6,4,7,3,6,4,{8}8b,{16}3,4,{8}3,2,
5-2[8:1],2V48b[4:1]*-5[8:1],{4}5-7[8:1],,1,
7-4[8:1],1<3[4:1],{2}1/6,
{4}2-5[8:1],8>6[4:1],{2}8/3,
{8}7,6,5/4,{16}3,3,{8}4-7[8:1],2,{4}1x,
{8}3,5/6,7,4/5,{2}2-4[8:1]/7-5[8:1],
{32}C,B1/B8,{4},,,{16},,,{8}B8,
B7,B6,B5,{2}B4,
{8}B7,B6,B5,B4,{2}B3,
{8}B6,B5,B4,B3,{2}B2,
{8}6,5,4,3,{2}2h[2:1],
{8}5,4,3,2,{2}1h[2:1],
{8}4,3,2,1,{2}8h[2:1],
4>1[4:1],6,
{4}4h[1:1]/E2,B2,B3,E4,
E2,4/B2,5/B3,6/E4,
5h[1:1]/E8,B7,B6,E6,
E8,B7,{8}4,5,{4}3/6h[4:1],
4-2[8:1],5/4,7-5[8:1],7/8,
2-4[8:1],2/5,7-5[8:1],7/4,
{8}6/2,2/6,7/3,3/7,4/8,4/8,5qq4[8:3]/1qq8[8:3],5/1,
{24},,,,,,,,,,,,,,,4,5,4,{4}5,
{8}2b/7b,5/4,6-1[6:1],1,{16}3x,4x,,2x,,,{8}3-8[6:1],
3,{16}6x,5x,,,{8}7,6-2[8:1]/5-1[8:1],4,,,8h[4:1],
4,3-8[6:1],3,{16}6x,5x,,7x,,,{8}6<1[6:1],
{16}3x,4x,,2x,,,3,4,{8}5,6,2,8,
{4}5b/4b,{8}6-1[6:1],1,{16}3x,4x,,2x,,,{8}3>8[6:1],
{16}6x,5x,,7x,,,6,5,{8}4,3,7-3b[8:1],5,
{2}7b/4bh[8:3],{8}4,4,4,4,
{16}4,5,4,5,3,6,3,6,2,7,2,7,{4}1h[8:1],
{8}8b/2b,3,7/1,{16}6,6,{8}8,5,6/4,3,
2/1,{16}8,8,{8}4,6,{4}5-7[8:1]/2-5[8:1],5/2,
{8}8/3,7,1/6,{16}2,8,3,7,2,8,{8}4>1[8:1],5,
4-8[8:1],7,4<2[4:1],5,{4}4,5,
{8}6/4,3,5/2,{16}6,6,{8}4,{16}8,8,{8}5,3,
4/2h[8:1],{16}5,6,{8}1h[8:1],{16}6,5,{8}2h[8:1],{16}5,6,{8}3,3,
{4}3/4,6>2[4:1]/2v3[8:1],{2}6b/2b<6[4:1],
{4}5,3V57[4:1]/7v6[8:1],{8}3b/7bV13[4:1],,,5,
6,7,2/8,{16}3,3,{8}1,4,3/5,6,
7/8,{16}1,1,{8}4,3,{16}5,6,7,8,{4}5b/1b,
{8}2/6,3,8/4,{16}7,1,6,2,7,1,{8}5<8[8:1],4,
5-1[8:1],2,5>7[4:1],4,{4}5,4,
{8}3/5,6,4/7,{16}3,3,{8}5,{16}1,1,{8}4,6,
5/7h[8:1],{16}4,3,{8}8h[8:1],{16}3,4,{8}7h[8:1],{16}4,3,{8}6,1,
{1}2/8-2-7-3-6-4b[2:3],
,7b<2[2:1]/2b>7[2:1],
8bp4[2:1]/1bq5[2:1],
{32}6,7,{16}8h[16:15],{4},,,{16},,{32}B4,
B3,{16}E3,
E
