&title=Theme 208
&artist=Mitsukiyo
&first=0
&des=ふえす
&clock_count=4
&lv_5=13+
&inote_5=(130)
{1},,
{8}4h[1:1],,,,,,,,
{8}6h[1:1],,,,,,,,
{8}3h[1:1],,,,,,,,
{8}5h[4:3],,,,,,4h[4:1],,
{8}8,2,6,3,{16}7h[16:3],,,1h[16:3],{8},5,
{8}3,6,3,5,{16}4h[16:3],,,6h[16:3],{8},4,
{8}3,6,4,5,{16}1h[16:3],,,7h[16:3],{8},3,
{16}6h[16:3],,,3h[16:3],{8},5,{16}4/E6,B5,B4,E4,{8}C,,
{8}B8/1,2h[8:1],8,3,{16}D8/4`A7,,,6h[16:3],{8},,
{8}B1/8,7h[8:1],1,6,{16}D2/5`A2,,,3h[16:3],{8},,
{8}B7/1,2h[8:1],8,3,{16}D2/5`A2,,,6h[16:3],{8},,
{16}3h[16:3],,,7,{8}B3,6,5/B4`E5,,Ch[8:1],,
{8}B1/8,7h[8:1],1,6,{16}D2/8`A2,,,3h[16:3],{8},,
{8}B8/1,2h[8:1],8,3,{16}D8/4`A7,,,6h[16:3],{8},,
{8}B2/8,7h[8:1],1,6,{16}D8/1`A7,,,3h[16:3],{8},,
{16}2h[16:3],,,6,{8}E2,7,{16}8<4[8:1]/E1,B1,B2,B3,E4,,,,
{8},,1-4[8:1]/8,7h[8:1]/1,,,5<8[8:1]/3,4h[8:1]/5,
{8},,2>5[8:1]/6,5h[8:1]/2,,,7-4[8:1]/1,2h[8:1]/7,
{8},,4-7[8:1]/2,4h[8:1]/3,,,8-3[8:1]/6,8h[8:1]/7,
{8},,4>1[8:1]/7,4h[8:1]/5,,,5V31V75>5[2:3]*V31V75>5[2:3],A7/A8/A1/A2/A3/A4/A5/A6/B1/B2/B3/B4/B5/B6/B7/B8/C/E1/E2/E3/E4/E5/E6/E7/E8,
{8},,,,,,,,
{8},,,,,,7,3,
{8},8-4[8:1],4,8,,1>8[8:7],8,1,
{8}B7/E8/B8,,B3/B4,,E4,,C,3,
{16}6/1h[8:3],,,7-5[16:1],,,7,,3h[8:3],,,6-8[16:1],,,6,,
{8}4h[4:1],7,6q4-7[8:3],3,
{16}6/1,,,2,,,3,,
{16}3/8h[8:3],,,2-4[16:1],,,2,,6h[8:3],,,3-1[16:1],,,3,,
{8}7x<5[16:1],2x>4[16:1],7,2,5x,3/4,1x,6/5,
{16}2/8h[8:3],,,2-5[16:1],,,2,,6h[8:3],,,4-1[16:1],,,4,,
{8}5h[4:1],2,3p5-2[8:3],6,{16}3/8,,,7,,,6,,
{16}1/5h[8:3],,,1>3[16:1],,,1,,7h[8:3],,,5>3[16:1],,,5,,
{8}8-6[8:1]*-2[8:1],,8w4[8:1],,8,,,4h[8:1],
{16}7h[8:3],,,2>4[16:1],,,2,,6h[8:3],,,8>2[16:1],,,8,,
{8}5h[8:1],2,3q1-4[8:3]/6,7,{16}3/8,,,7,,,6,,
{16}7/1h[8:3],,,7<5[16:1],,,7,,3h[8:3],,,1<7[24:1],,,1,,
{8}3xv1[16:1],6xv8[16:1],3,6,7xv5[16:1],2xv4[16:1],7,2,
{16}8h[8:3],,,4>1[16:1],,,4,,6h[8:3],,,8>3[16:1],,,8,,
{8}7h[8:1],4,6p8-5[8:3]/3,2,{16}6/1,,,2,,,3,,
{16}7/1h[8:3],,,7-4[16:1],,,7,,3h[8:3],,,1-6[16:1],,,1,,
{8}4b-2[8:1]*-6[8:1],,4bw8[8:1],,4b,,,{16},1,
{16}7,,2,8,,,3h[16:5],,{16}7,6,,5,{16},,,4,
{16}6,,3,5,,,2h[16:5],,{16}6,7,,8,{16},,,8,
{16}2,,7,1,,,6h[16:5],,{16}2,3,,4,{16},,,5,
{16}3,,6,4,,,7h[16:5],,{16}3,2,,1,{16},,,1h[16:3],
{16}3,,8h[4:1],6,,,4h[16:5],,{16}7,6,,5,{16},,,5h[16:3],
{16}7,,4h[4:1],2,,,7h[16:5],,{16}3,2,,1,{16},,,6h[16:3],
{16}4,,3h[4:1],5,,,8h[16:5],,{16}2,3,,4,{16},,,4>1[8:1],
{16},8q5[8:1],,4,,8,,,2h[16:3],6,,,5h[4:1]b,,,,
{8}1-5[4:1],,1/7-3-8-6[2:1],,7,{16},4,,,2,,
{8}8-4[4:1],,8/6-2-7-5[2:1],,6,{16},1,,,3,,
{8}4-8[4:1],,4/6-2-5-7[2:1],,6,{16},3,,,4,,
{8}5-1[4:1],,5/7-3-6-8[2:1],,7,{16},2,,,1,,
{8}1-5[4:1],,1/5-1-6-4[2:1],,6,{16},7,,,8,,
{8}8-4[4:1],,8/4-8-3-5[2:1],,3,{16},2,,,1,,
{8}1v4[8:1]*p5[8:1],,1,,8-4[8:1],{16},4,8,,{8}1,
{16}2/5x,,3,4,8x/5,,7,6,5/1x,5x/1x,,3x/7x,C/B7/B3,,4xh[8:1],,
{16}8<6[16:1],,8,B1/B2/E2,8,,4x,,1>3[16:1],,1,B7/B8/E8,1,,5x,,
{8}8q4[8:1]/4,1/5,8<4>8[8:3]*p4[16:3]/4,C,
{16}8,,,A4,,,5xh[8:1],,
{16}1>3[16:1],,1,B8/B7/E8,1,,6x,,8<6[16:1],,8,E2/B1/B2,8,,3xv8[8:1],,
{8}2,7xv4[8:1]/3,6,8x>3[8:1]/7,1,4x<7[8:1]/8,5,4/3x,
{16}2>4[16:1],,2,B7/B6/E7,2,,5x,,7<5[16:1],,7,B2/B3/E3,7,,4x,,
{8}1p5[8:1]/5,8/4,1>5<1[8:3]*q5[16:3]/5,C,
{16}1,,,A5,,,4xh[8:1],,
{16}7<5[16:1],,7,B2/B3/E3,7,,3x,,2>4[16:1],,2,B7/B6/E7,2V86[8:1]*<6[8:1],,6x,,
{8}2bV46[8:1]*>6[8:1],,2bw6[8:1]*w6[8:1],,2b,,,{16}4xh[8:1],,
{16}8V24[8:1],,4v2[8:1],B6/B7/E7,8,,7x,,1V75[8:1],,5v7[8:1],B3/B2/E3,1,,2x,,
{8}2-6[8:1],1,7-3<6[8:3]/2,8,
{16}1/7,,,2,,,3h[8:1],,
{16}1<5[8:1],,5v7[8:1],B3/B2/E3,1,,2x,,8>4[8:1],,4v2[8:1],B6/B7/E7,8,,7x,,
{16}B7/E8,,5v4[8:1],B2/E2,4>1[8:1],,
{8}1v8[8:1],8<5[8:1],5,4,3h[8:1],
{16}7pp1[8:1],,1<5[8:1],B3/B4/E4,1,,2x,,2qq8[8:1],,8>4[8:1],B6/B5/E6,8,,7x,,
{8}7-3[8:1],8,2-6>3[8:3]/7,1,
{16}8/2,,,7,,,6h[8:1],,
{16}2qq8[8:1],,8V24[8:1],B6/B5/E6,8,,7x,,7pp1[8:1],,1V75[8:1],B3/B4/E4,1V35[8:1],,2x,,
{8}1b-5[8:1]*-5[8:1],,1bw5[8:1]*w5[8:1],,1b,,,5h[8:1],
{16}2h[2:1],,,6,,,7,,8h[2:1],,,2,,,1,,
{32}1b,2/7,3/6,4/5,,,,,
