&title=月詠
&artist=tokiwa
&first=0
&des=9V_Y2-6
&lv_5=13
&inote_5=(150){8},,,,,,,,,,,,,,,,,,
{16},,6xb/5xb,,,74,,,6,5,74,,,65,,,3,4,2h[8:1]/5<8[8:1],,,,1,2,3,4,5/6-1[8:1],,7,,65,,,,3xb/4xb,,,52,,,3,4,25,,,34,,,6,5,74,,6,,2,3,4,5,8,7,6,5,1,,2,,3>8[8:1]/8,,,,7,,6,,5q1[8:1],,,,4,,,,28,,,2,8,,27,,7-4[8:1]/3-8[8:1],,,,37,,,,6<1[8:1]/1,,,,2,,3,,4p8[8:1],,,,8,,,,17,,,65,,,34,,Ch[8:2]/2h[8:2],,,,,,,,3/4h[16:3],,,5h[16:3],,,6,,7/5h[16:3],,,4h[16:3],,,3,,25,,3,4,,,6,,7-5[16:2]/5-1[16:2],,,,,,,,7/5h[16:3],,,4h[16:3],,,3,,2/4h[16:3],,,5h[16:3],,,6,,74,,6,5,,,3,,2-4[16:2]/4-8[16:2],,,,,,,,75,,6,5,,,45,,34,,2,5,,,3,,4/6h[16:3],,,5h[16:3],,,4,,4-8[8:1]/2-4[8:1],,,,2/4qq1[1:1],,,,8,,7,7,,,6,,6,,5,5,,,4,,4<1[4:1],,,,1<4[4:1],,,,4xw8b[8:1],,,,,,,,2-5[8:1],,2,,8,,1-6[8:1],,1,,3,,4-8[8:1],,3,,4/7-4[8:1],,6,,7/1-7[8:1],,2,,1/5w1[8:1],,6,,5,,,,7-4[8:1],,7,,1,,8-3[8:1],,8,,6,,5-1[8:1],,6,,5/2-5[8:1],,3,,8-2[8:1]/2,,7,,8/4-1[8:1]*-7[8:1],,3,,4,,,,8<5[8:1],,1,,28,,3>8[8:1],,4,,35,,6-3[8:1],,6,,2-7[8:1],,2,,5<1[4:1],,5,,2<5[4:1],,,,3,,,,4-1[8:1],,4,,6,,5-8[8:1],,5,,3,,4>1[8:1],,4,,7<4[8:1],,7,,8,,1,,2x/5xw1[8:1],,,,5b,,,,
{8}3xbh[4:6],,
{8},,E4,,E5,,E6,,E7,,E8,,2,,1h[4:6],,E1,,E8,,E7,,E6,,E5,,E4,,2,,
{16}3/4h[16:3],,,5h[16:3],,,6,,7/5h[16:3],,,4h[16:3],,,3,,2/4h[16:3],,,5h[16:3],,,6,,7-4[16:2]/4-8[16:2],,,,7/4<1[2:1],,,,1,,1,,2,,2,,3,,3,,4h[8:1],,8,,1xh[2:1]/5xh[4:1],,,,,,,,5xw1b[8:1],,,,,,,,78,,26,,,,12,,7-4[8:1]/4-8[8:1],,,,74,,,,15,,3,4,2,,6,,6-1[8:1]/5-2[8:1],,,,65,,,,38,,65,,,,78,,5-1[8:1]/2-5[8:1],,,,25,,,,3/8h[16:3],,,6h[16:3],,,5,,6<1[8:1]/2>5[8:1],,,,26,,,,48,,65,,,,15,,4-6[8:1]/2-4[8:1],,,,24,,,,85,,7,6,7,,58,,7-4[8:1]/4-8[8:1],,,,74,,,,15,,34,,,,48,,75,,6,,5,,4,,4xbh[8:3]/1xbq7>3bb[8:2],,,,,,,,
{64}E5,B5,B6,,,,,
{16},,Chf[4:1],,,,2h[16:3],,,7,5,,6,,2/5h[16:3],,,2,4,,3,,7/4h[16:3],,,7,5,,6,,5-1[8:1]/2-5[8:1],,,,,,,,8/4h[16:3],,,7,5,,6,,1/5h[16:3],,,2,4,,3,,4-8[8:1],,4,,7-4[8:1],,,,7/1<6[8:1],,,,5,,,,5h[16:3],,,2,4,,3h[8:1],,8h[16:3],,,5,7,,4,,3-6[8:1],,3,,7-2[8:1],,7,,4>1[8:1],,,8h[16:3],,,,,8<5[8:1],,8,,4>1[8:1],,4,,7-2[8:1],,7,,3-6[8:1],,3,,5p4[4:1],,,,4>5[4:1],,,,1xbs5[8:1],,,,Cf,,,,6-4[8:1],,,,6/2-8[8:1],,,,2/7-4[8:1],,6,,7/3-8[8:1],,2,,6-2[8:1],,5,,6/2<4[4:1],,,,3-7[8:1],,,,3-5[8:1],,,,3/6-2[8:1],,7,,6/4>1[8:1],,3,,4/8-4[8:1],,7,,8/3-8[8:1],,2,,8>5[4:1],,,,5>8[4:1],,,,8w4[8:1],,,,,,,,6-1[8:1],,45,,6,,3,,2-5[8:1],,18,,2,,7,,6-4[8:1],,6,,2-8[8:1],,2,,4<1[4:1],,,,1,,2,,3-5[8:1],,1,,3,,8,,7-1[8:1],,5,,7-3[8:1],,4,,7bxz3[4:1],,,,3,,,,1-4[8:1]*-6[8:1],,,,,,,,5-7[8:1]/2-4[8:1],,,,2/5-2[8:1],,,,58,,8qq5[8:5],,,,4,,,,3,,3,,,,2V41[4:1],,,,7,,,,6h[4:1],,,,
{32}D8,A8,D1,A1,D2,A2,D3,,
{16}5,,,34,,,75,,6,5,7,5,6,5,8,5,6-2[8:1],,4>1[8:1]/5,,3,,4,,5x-7[8:1],,,,1x/5xpp2[8:3],,,,2,,2,,3,,3,,4,1,5,8,6,7,5,8,4w8[8:1],,,,4b,,,,3h[4:1],,,,
{32}D2,A1,D1,A8,D8,A7,D7,,
{16}4,,,65,,,24,,3,4,2,4,3-8[8:1],4,1,4,3b,,,,Ch[4:1],,,,1pp5[2:1],,,,
{4},,,6pp1[2:1],,,,2pp5[2:1],,,,E6,E7,E8,E1,4qq8[2:1]/E2,,,,7qq4[2:1],,,,3qq8[2:1],,,,E1/E7,E6/E2,E5/E3,E4,
{8}3/4h[4:1],,2,,4h[4:1]/1pp4[8:8],,,,4,,5,,6-1[8:1],,,,8<5[2:1],,5,,4,,3,,2-5[4:1],,5pp6[4:1]*qq4[4:1],,,,,,
{16}3/4h[16:3],,,5h[16:3],,,6,,7/5h[16:3],,,4h[16:3],,,3,,2/4h[16:3],,,5h[16:3],,,6,,7-4[16:2]/4-8[16:2],,,,47,,,,Ch[1:1]/1h[2:1],,,,,,,,,,,,,,,,1w5[4:1],,,,,,,,,,,,7,,6,,25,,,,34,,,,74,,,,65,,,,1,4,2,5,3,6,4,7,5w1[8:1],,,,5b>2[8:1],,,,5/8p4[8:1],,7,,8/3>8[8:1],,2,,3/6>3[8:1],,7,,6/1-6[8:1],,2,,5-1[8:1],,5,,5<4[4:1],,,,5,,,,6,,7,,8h[16:3],,,5,6,,4,,3h[16:3],,,5,4,,6,,7-4[16:2],,7,,3-8[8:1],,3,,5<8[8:1],,,2h[16:3],,,,,1q5[8:1],,24,,1,,6,,7-2[8:1],,65,,7,,4,,3-8[8:1],,8>5[8:3],,3,,,,5w1b[8:1],,,,,,,,3-5[8:1],,,,3/7-1[8:1],,,,7/2-5[8:1],,3,,2/6-1[8:1],,7,,3-7[8:1],,4,,3/7>5[4:1],,,,6-2[8:1],,,,6-4[8:1],,,,6/3-7[8:1],,2,,3/5<8[8:1],,6,,5/1-5[8:1],,2,,1/6-1[8:1],,7,,1<4[4:1],,,,4<1[4:1],,,,1w5[8:1],,,,,,,,3-8[8:1],,54,,3,,6,,7-4[8:1],,81,,7,,2,,3-5[8:1],,3,,7-1[8:1],,7,,5>8[4:1],,,,8,,7,,6-4[8:1],,8,,6,,1,,2-8[8:1],,4,,2-6[8:1],,5,,2b/5b<4[8:3],,,,,,,,Cf,,,,,,,,1h[16:3],,,4,,2,5,3,6h[16:3],,,4,,7,5,6,4h[8:1],,8,,6h[8:1],,8,,1,7,2,6,3,5,2,6,2qq5-2[2:1]*qq5-8[2:1],,
