&title=MENDES
&artist=Humanoid
&first=0
&des_5=真 Dead Horse has back
&clock_count=4
&lv_5=14
&inote_5=(168)
{1},
{4},
{16},,,
{32},
{16}
1,2,8,7,1,2,8,7,
2,3,7,6,2,3,7,6,
3,4,6,5,3,4,6,5,
3b,4,5,6,7,8,1,2,
5,6,4,3,5,6,4,3,
6,7,3,2,6,7,3,2,
7,8,2,1,7,8,2,1,
7b,8,1,2,3,4,5,6,
2,3,4,5,7,6,5,4,
2,3,4,5,7,6,5,4,
2,3,4,5,7,6,5,4,
2b,3,4,5,6,7,8,1,
8,7,6,5,1,2,3,4,
8,7,6,5,1,2,3,4,
8,7,6,5,1,2,3,4,
8b,7,6,5,4,3,2,1,,
2,7,2,7,3,6,3,6,
4,5,3,6,4,5,3,6,
4,5,3,6,4,5,3,6,
3,4,2,5,3,4,2,5,
3,4,2,5,3,4,2,5,
4,5,3,6,4,5,3,6,
4,5,3,6,4,5,3,6,
5,6,4,7,5,6,4,7,
5,6,4,7,5,6,4,7,
4,5,3,6,4,5,3,6,
4,5,3,6,4,5,3,6,
4,5,2,7,4,5,2,7,
4,5,2,7,4,5,2,7,
4,5,3,6,4,5,3,6,
4,5,3,6,4,5,,
45,,4h[4:1]/5h[4:1],,,,,,
45,,4h[4:1]/5h[4:1],,,,,,
1,8,2,7,1,8,2,7,
1,8,2,7,1,8,2,7,
2,3,4,5,7,6,5,4,
2,3,4,5,7,6,5,4,
8,7,1,6,8,7,1,6,
8,7,1,6,8,7,1,6,
8,1,2,3,7,6,5,4,
8,1,2,3,7,6,5,4,
1,8,2,7,1,8,2,7,
1,8,2,7,1,8,2,7,
2,3,4,5,7,6,5,4,
2,3,4,5,7,6,5,4,
2,1,3,8,2,1,3,8,
2,1,3,8,2,1,3,8,
2,3,4,5,1,8,7,6,
2,3,4,5,1,8,7,6,
{16}
1,,18,,2h[8:1]/7h[8:1],,,,1h[8:1]/8h[8:1],,,,1b/8b,,1b/8b,,,,1h[8:1]/8h[8:1],,,,2b/7b,,1b/8b,,1h[8:1]/8h[8:1],,,,2b/7b,,1b/8b,,2b/7b,,18,2,3,4,5,6,7,8,
1,,27,,3h[8:1]/6h[8:1],,,,4h[8:1]/5h[8:1],,,,4b/5b,,4b/5b,,,,4h[8:1]/5h[8:1],,,,3b/6b,,4b/5b,,4h[8:1]/5h[8:1],,,,3b/6b,,4b/5b,,3b/6b,,45,6,7,8,1,2,3,4,
5,5,7,7,4,4,6,6,3,3,5,5,
2,4,2,4,3,5,3,5,4,6,4,6,
3b,7b,4b,6b,3b,7b,4b,6b,
2b,6b,3b,5b,
1b>4[4:3]*>7[2:3],,,,
{1},
{4},,,
{8}
2h[4:3],,,,7h[4:1],,,,
{12}
1,2,3,4,5,6,7,8,1,7h[8:6]/2>6[2:1],,,2,,,,,,,,,,,,
8,7,6,5,4,7,6,5,4,3h[4:1],,,8h[4:1],,,7h[4:1],,,6h[4:1],,,5h[4:1],,,
4,3,2,1,8,3,2,1,8,7V14[8:3],,,6h[2:1],,,,,,5h[4:1],,,4h[4:1],,,3h[12:5],
4,5,6,7,8,3,4,5,6,7,8s4[3:2],1h[4:1],,,,,,1,,,,,,
{16}
2h[8:3],,8,8,,,3h[8:5]/7,7,,,6,6,,,5,5,6h[8:3],,4,4,,,7h[8:5]/3,3,,,2,2,,1,1,,8h[8:6],,2,,,,,,1,,2,,3,,,,4b-1[2:1]/5b-8[2:1],,4b/5b,,
{4},,,
{8}27,,1,8,1,,27,,1<6[4:1]/2,2,3,4,5,5>2[4:1]/6,7,8,1,,8,1,8,,1-4[4:1],,1b-6[4:1],,1b>4[4:1],,1b<6[4:1],,1b,,
45,,3,6,3,,45,,3<6[4:1],3,2,1,8,7>2[4:1],7,6,5,,4,3,4,,26,,2b-7[4:1],,6b-3[4:1],6b,6b,,2b,,
1h[4:4],,,,7,8,2,,8p4[4:1],,,,2h[4:2],,,,
7h[4:4],,,,1,8,6,,8v3[4:1],,,,7,6,5,4h[8:6],,,,,,
{24}
8,15,26,37,48,,,,,
{8}
37,3,36,3,37,3,38,3,3b/7b,3b/7b,2b/6b,3b/7b,
26,6,36,6,26,6,16,6,2b/6b,2b/6b,3b/7b,2b/6b,
37,7,47,7,57,7,67,7,8b/7b,8b/7b,1b/7b,1b/7b,
27,2,26,2,25,2,24,2,2b/3b,2b/3b,2b/1b,2b/1b,
{16}
18,2,7,3,6,4,5,3,6,2,7,1,8b/7b,,8b/7b,,7,6,5,4,8,7,6,5,
43,2,5,1,6,8,7,1,6,2,5,3,4b/5b,,4b/5b,,4,3,2,1,5,4,3,2,
18,7,2,6,3,5,4,6,3,7,2,8,1b/2b,,1b/2b,,2,3,4,5,1,2,3,4,
56,7,4,8,3,1,2,8,3,7,4,6,4b/5b,,4b/5b,,5,6,7,8,4,5,6,7,
{16}
8b,
{32},
{16}
1,2,3,5,6,7,
2,3,4,6,7,8,
3,4,5,7,8,1,
4,5,6,7,8,15,
6,7,8,1,2,37,
8,1,2,3,4>6[1.6071##0.3571]*<2[1.6071##0.3571],,,,,
{1},
{16},,,
{32},
{16}
35,26,17,8b,
E
