&title=Joe Fight
&artist=DJ Myosuke
&first=0.48
&des_5=ホシノちゃん(-10dB)
&lv_5=14
&des=ホシノちゃん(-10dB)
&inote_5=(175)
{64}1bs5-1V72-6-3-5b[2:7]/8bz4-8V27-3-6-4b[2:7],2bx/7bx,3bx/6bx,4bx/5bx,,,,,,,,,,,,,
{4},,,,,,,,,,,,,,,
{8}1b-6[8:1]/3h[1:1],,1,,5-8[8:1],4,5,,1<6[8:1],,
{32}5w1b[8:1],,,,,,,,B5f,Cf,B8/B2f,B1f,A2h[4:1]/D2h[4:1]/A1h[4:1]/D1h[4:1]/A8h[4:1],,,,,,,,,,,,
{8}5b-2[8:1]/7h[4:3],,5,,1-4[8:1],8,1w5b[8:1],,
{32}B1f,Cf,B6f/B4,B5f,A6h[8:3]/D6h[8:3]/A5hf[8:3]/D5h[8:3]/A4h[8:3],,,,,,,,,,,,
{384}E4/E7,,,,,,,,,,,,B3,B7,,,,,,,,,,,B2,B8,,,,,,,,,,,E1,E2,,,,,,,,,,,A1h[8:1],,,,,,,,,,,,,,,,,,,,,,,,,,,,,,,,,,,,,,,,,,,,,,,,
{4},
{8}8bx-3[8:1]/6h[1:1],,8,,4-1[8:1],5,4,,8>3[8:1],,
{32}4w8b[8:1],,,,,,,,B4f,Cf,B1/B7f,B8f,A7h[4:1]/D8h[4:1]/A8h[4:1]/D1h[4:1]/A1h[4:1],,,,,,,,,,,,
{8}5b-2[8:1]/7xh[1:1],,5,,1-4[8:1],8,1,,5>2[8:1],,
{32}8w4b[8:1],,,,,,,,B8f,Cf,B5/B3f,B4f,A3h[4:1]/D4h[4:1]/A4h[4:1]/D5h[4:1]/A5h[4:1],,,,,,,,,,,,
{4}7b-3[8:1],1w5b[8:1],
{32}B1f,Cf,B4/B6f,B5f,A6h[4:1]/D6h[4:1]/A5h[4:1]/D5h[4:1]/A4h[4:1],,,,,,,,,,,,
{4}2b-6[8:1],8w4b[8:1],
{32}B8f,Cf,B5/B3f,B4f,A3h[4:1]/D4h[4:1]/A4h[4:1]/D5h[4:1]/A5h[4:1],,,,,,,,,,,,
{4}7-3[8:1],1<6[8:1]*>4[8:1],
{32}1b,D3/D8f,,,,,,,
{4},8b>1-4<6b[8:3]/A2h[2:1]/D3hf[2:1]/A3h[2:1],,,8-6[8:1],
{4}8-3[8:1]/5h[2:3],8<6[8:1],8>3[8:1],8-6[8:1],8-3[8:1],8-4[8:1],8,
{16}1<6[8:1],5,2,,
{4}1>3[8:1]/4h[2:1],1-6[8:1],1-3[8:1],
{8}1/5w1[8:1],5,5,,D3/A3f/D4,D8/A7f/D7,
{16}4,5,E2/B2f/E3,,E8/B7f/E7,,1x,8x,
{16}2bx/7bx,,,,3,4,3,4,2h[8:1]/5h[8:1],,,,2h[8:1]/5h[8:1],,,,4h[8:1]/7h[8:1],,,,4h[8:1]/7h[8:1],,,,1h[8:1]/8h[8:1],,,,7,8,7,,
{16}5h[8:1]/6,,7,,4h[8:1]/6,,7,,3h[8:1]/6,,7,,2,8,2,8,1b-4<6b[8:3],,,,A2h[4:1]/D3hf[4:1]/A3h[4:1],,,,,,,,7bw3b[8:1],,,,
{32}A7f,B7f,Cf,B3f,A3f,,,,
{4}1-6[8:1],1-4[8:1]/5h[8:1],1<6[8:1]/5h[8:1],1>4[8:1]/5h[8:1],1-5[8:1]/5h[8:1],
{8}1-4[8:1]/6,6,7/1,7,
{4}8-3[8:1],8-5[8:1]/4h[8:1],8/4h[8:1],
{16}6,5,6,5,
{8}4/7h[4:1],,D4/A4f/D5,D1/A8f/D8,
{16}3,5,B2/E3f/D3,,B7/E7f/D7,,1x,8x,Chf[32:1],,,,
{8}7,7,7-5[8:1]/8V64[8:1],,7V13[8:1]/8-2[8:1],,7v5[8:1]/8V64[8:1],,7/8,,
{16}1/2,,1/2,,3,8,3,,
{8}2-4[8:1]/1V35[8:1],,2V86[8:1]/1v7[8:1],,1/2,,
{16}5,4,6,3,
{4}8b>1-4<6b[8:3],A2h[4:1]/D3hf[4:1]/A3h[4:1],,1<6b[8:1],
{8}A1f/5h[4:1],,8-4[8:1],1,3-7[8:1],2,1-6b[8:1],,
{8}A1f/5h[4:1],,8-4[8:1],1,3-7[8:1],2,1<8<7<6b[8:1],,
{8}A1f/5h[4:1],,8-4[8:1],1,3-7[8:1],2,1<6b[8:1],,
{8}A1f/5h[4:1],,8w4b[8:1],1,Cf,,8b>3b[8:1],,
{8}A8f/4h[4:1],,1-5[8:1],8,6-2[8:1],7,8-3b[8:1],,
{8}A8f/4h[4:1],,1-5[8:1],8,6-2[8:1],7,8>1>2>3b[8:1],,
{8}A8f/4h[4:1],,1-5[8:1],8,6-2[8:1],7,8w4b[8:1],8,
{4}8b-5-1[8:3]*-3-7[8:3]/B8/Cf/B4/A4,,,2>5b[8:1],
{32}A2f/6-2[8:1],7,8,1,,,,,
{8}6x,1,8-4[8:1],1,2-5b[8:1],,
{32}A2f/6-2[8:1],7,8,1,,,,,
{8}6x,1,8-4[8:1],1,2>3<4<5b[8:1],,
{32}A2f/6-2[8:1],7,8,1,,,,,
{8}6x,1,8-4[8:1],1,2>5b[8:1],,
{32}A2f/6-2[8:1],7,8,1,,,,,
{8}6xw2b[8:1],,Cf,,7bx<4b[8:1],,
{32}A7f/3-7[8:1],2,1,8,,,,,
{8}3x,8,1-5[8:1],8,7-4b[8:1],,
{32}A7f/3-7[8:1],2,1,8,,,,,
{8}3x,8,1-5[8:1],8,7<6>5>4b[8:1],,
{32}A7f/3-7[8:1],2,1,8,,,,,
{8}3x,8,1-5[8:1],8,7<4b[8:1],,
{32}A7f/E3,B2f,B1f,E1f,A8hf[8:3],,,,,,,,,,,,
{384},,,,,,,,E8/E1,,,,,,,,B7,B1,,,,,,,B2,B6,,,,,,,B3,B5,,,,,,,E4,E5,,,,,,,A4hf[8:1],,,,,,,,
{48},,,,,
{4},
{32}1b,2x,3x,,7b,6x,5x,,2b-5[8:1],3x,4x,,,,,,2b/8bw4b[8:1],7x,6x,,,,,,,,,,,,,,
{32}1b/7b,2x/6x,3x/5x,4x,,,,,2b/8b,3x/7x,4x/6x,5x,,,,,1bv4[8:1]/7bv4[8:1],2x/6x,3x/5x,4x,,,,,,,,,,,,,
{32}8b,7x,6x,,2b,3x,4x,,7b-4[8:1],6x,5x,,,,,,7b/1bw5b[8:1],2x,3x,,,,,,,,,,,,,,
{32}8b/2b-6-2[4:1],7x/3x,6x/4x,5x,,,,,,,,,,,,,8b-5[8:1]*-3[8:1],,,,,,,,B2/Cf/B6,,,,,,,,
{32}8b,7x,6x,,2b,3x,4x,,7b-4[8:1],6x,5x,,,,,,7b/1bw5b[8:1],2x,3x,,,,,,,,,,,,,,
{32}8b/2b,7x/3x,6x/4x,5x,,,,,7b/1b,6x/2x,5x/3x,4x,,,,,8bv5[8:1]/2bv5[8:1],7x/3x,6x/4x,5x,,,,,,,,,,,,,
{32}1b,2x,3x,,7b,6x,5x,,2b-5[8:1],3x,4x,,,,,,2b/8bw4b[8:1],7x,6x,,,,,,,,,,,,,,
{32}1b/7b-3-7[4:1],2x/6x,3x/5x,4x,,,,,,,,,,,,,1bw5b[8:1],,,,,,,,A1/B1/Cf/B5/A5,,,,,,,,
{32}D3h[4:1],,,,,,,,7b-4[8:1],6x,5x,,,,,,7b/1b-5b[8:1],2x,3x,,,,,,,,,,,,,,
{32}8b,7x,6x,,2b,3x,4x,,7b-4[8:1],6x,5x,,,,,,7b/1bw5b[8:1],2x,3x,,,,,,,,,,,,,,
{32}1b/7b,2x/6x,3x/5x,4x,,,,,1b/7b,2x/6x,3x/5x,4x,,,,,1bv4[8:1]/7bv4[8:1],2x/6x,3x/5x,4x,,,,,,,,,,,,,
{32}8b/2bV48[4:1],7x/3x,6x/4x,5x,,,,,,,,,,,,,6w2b[8:1],,,,,,,,A6/B6/Cf/B2/A2,,,,,,,,
{32}D7h[4:1],,,,,,,,2b-5[8:1],3x,4x,,,,,,2b/8b-4b[8:1],7x,6x,,,,,,,,,,,,,,
{32}1b,2x,3x,,7b,6x,5x,,2b-5[8:1],3x,4x,,,,,,2b/8bw4b[8:1],7x,6x,,,,,,,,,,,,,,
{32}8b/2b,7x/3x,6x/4x,5x,,,,,8b/2b,,,,8b/2b,,,,8bv5[8:1]/2bv5[8:1],7x/3x,6x/4x,5x,,,,,,,,,,,,,
{32}1b/7b-3[8:1],2x/6x,3x/5x,4x,,,,,2w6b[8:1],,,,,,,,A2/B2/Cf/B6/A6,,,,,,,,,,,,,,,,
{64}1bs5-1V72-6-3-5b[2:7]/8bz4-8V27-3-6-4b[2:7],2bx/7bx,3bx/6bx,4bx/5bx,,,,,,,,,,,,,
{4},,,,,,,,,,,,,,,
{8}5b-8[8:1]/6h[2:1],,,,A1h[4:1]/A2hf[4:1]/D2f,,,,
{8}4b-1[8:1]/3h[2:1],4b,,,A8h[4:1]/A7hf[4:1]/D8f,,,,
{8}5b-8[8:1]/6h[2:1],5b,5b,,A1h[8:1]/A2h[8:1]/D2hf[8:1],,7xs3[8:7],,
{4},,5x-1b[8:1],Cf,
{4}8-5[8:1],8-3[8:1]/2h[8:1],8-5[8:1]/6h[8:1],8-3[8:1]/2h[8:1],8-5[8:1]/6h[8:1],8-3[8:1]/2h[8:1],8/6h[8:1],
{16}7-5[8:1],4,8,,
{4}2h[8:1]/7-1[8:1],7-5[8:1]/4h[8:1],7/3h[8:1],
{8}2-4[8:1]/4-8[8:1],2/4,2/4,,
{16}A7/D7f/A6,,A2/D3f/A3,,5,4,D8/A8f/D1,,B2h[4:1]/B3h[4:1]/E3hf[4:1],,,,
{4}1-6[8:1],1-4[8:1]/3h[8:1],1-6[8:1]/7h[8:1],1-4[8:1]/3h[8:1],1-6[8:1]/7h[8:1],1-4[8:1]/3h[8:1],1/7h[8:1],
{16}8-6[8:1],3,7,,
{4}4h[4:3]/8-3[8:1],8<6[8:1],8>3[8:1],8,
{4}5bxs1[8:5],,7-3b[8:1],B7/Cf/B3,
{16}2bx,,,,2/6x,,2/7x,,2/8x-6[8:1],,3,3,8x-2[8:1],,5,5,8x-6[8:1],,3,3,8x,,4,4,8x,,8/3x,,8/2x-4[8:1],,5,5,2x-8[8:1],,7,7,2x-4[8:1],,6,6,2x,,7,7,2x,,2<4[8:3]/6x,,2/5x,,,,,,,,1xw5b[8:1],8x,7x,,A1/B1/Cf/B5/A5,,,,
{16}7bx,,,,7/3x,,7/2x,,7/1x-3[8:1],,6,6,1x-7[8:1],,4,4,1x-3[8:1],,6,6,1x,,5,5,1x,,1/6x,,Cf/7x-5[8:1],,,,7x-1[8:1],,2,2,7x-5[8:1],,3,3,7x,,2,,7x,3x,7x,4x,
{4}8b>1-4<6b[8:3],A2h[4:1]/D3hf[4:1]/A3h[4:1],,
{8}1<6b[8:1],,
{8}A1f/5V74[4:1],,4V61[4:1],3,2-6[8:1],,2<7b[8:1],,
{8}A2f/5V74[4:1],,4V61[4:1],3,2-6[8:1],,2<1<8<7b[8:1],,
{8}A2f/5V74[4:1],,4V61[4:1],3,2-6[8:1],,2<1<8<7b[8:1],,
{8}A2f/5V74[4:1],,4,3,2b-5[8:1],,A2f/8>3b[8:1],,
{8}A8f/4V25[4:1],,5V38[4:1],6,7-3[8:1],,7>2b[8:1],,
{8}A7f/4V25[4:1],,5V38[4:1],6,7-3[8:1],,7>8>1>2b[8:1],,
{8}A7f/4V25[4:1],,5V38[4:1],6,7-3[8:1],,7,,
{4}8b>1-4<6b[8:3]/A2h[2:1]/D3hf[2:1]/A3h[2:1],,,,
{32}7b,6x,5x,,2b,3x,4x,,8b-4[8:1],7x,6x,,,,,,8b/1b-5[8:1],2x,3x,,,,,,1b/8b-4[8:1],7x,6x,,,,,,8b-6[8:1]/1b,2x,3x,,,,,,8b/2b,3x,4x,,,,,,8bw4[8:1]/3b,4x,5x,,8b,,,,8b,,,,,,,,
{32}2b,3x,4x,,7b,6x,5x,,1b-5[8:1],2x,3x,,,,,,1b/8b-4[8:1],7x,6x,,,,,,8b/1b-5[8:1],2x,3x,,,,,,1b/8b-3-7[4:1],7x,6x,,,,,,,,,,,,,,5bp8[8:1]*q2[8:1],,,,,,,,B5f,Cf,B1f,,,,,,
{32}2bx,3x,4x,,7b,6x,5x,,1b-5[8:1],2x,3x,,,,,,1b/8b-4[8:1],7x,6x,,,,,,8b/1b-5[8:1],2x,3x,,,,,,1b-3[8:1]/8b,7x,6x,,,,,,1b/7b,6x,5x,,,,,,1b/6b,5x,4x,,1b,,,,2b/7b,6x,5x,,2b,,,,
{32}8b-4[8:1]/3b,7x,6x,,,,,,1b-5[8:1]/8b,2x,3x,,,,,,8b-4[8:1]/1b,7x,6x,,,,,,1b-5[8:1]/8b,2x,3x,,,,,,1b/7b-3-7b[4:1],,,,,,,,A7f,,,,A3f,,,,1b-5-1[4:1],,,,8,,,,A1f/7,,,,A5f,,,,
{32}8b,7x,6x,,2b,3x,4x,,7b-4[8:1],6x,5x,,,,,,7b/8b-5[8:1],1x,2x,,,,,,8b/1b<6[8:1],2x,3x,,,,,,1b/2b-5[8:1],3x,4x,,,,,,2b/1b>4[8:1],8x,7x,,,,,,1b/7b-3b[8:1],,,,8b,,,,7b,,,,,,,,
{32}1b,2x,3x,,7b,6x,5x,,2b-5[8:1],3x,4x,,,,,,2b/1b-4[8:1],8x,7x,,,,,,1b/8b>3[8:1],7x,6x,,,,,,5bw1b[8:1],,,,,,,,,,,,,,,,7bw3b[8:1],,,,,,,,A7f,B7f,Cf,B3f,A3f,,,,
{32}1b,2x,3x,,7b,6x,5x,,2b-5[8:1],3x,4x,,,,,,2b/1b-4[8:1],8x,7x,,,,,,1b/8b>3[8:1],7x,6x,,,,,,8b/7b-4[8:1],6x,5x,,,,,,7b/8b<5[8:1],1x,2x,,,,,,8b/2b-6b[8:1],,,,1b-5b[8:1],,,,2b,,,,1b,,,,
{32}2b<8[8:1],3x,4x,,,,,,2b/7b,6x,5x,,,,,,1b/7b-3[8:1],2x/6x,3x/5x,4x,,,,,7b/1b,,,,1b,,,,
{4}8b>1-4<6b[8:3],A2h[4:1]/D3hf[4:1]/A3h[4:1],,,
{64}1bs5-1V72-6-3-5b[1:4]/8bz4-8V27-3-6-4b[1:4],2bx/7bx,3bx/6bx,4bx/5bx,,,,,,,,,,,,,
{4},,,,,,,,,,,,,,,
E
