&title=Hall of Mirrors
&artist=Sta
&first=0
&des=Tail_R
&lv_5=13+
&inote_5=(147)
{1},
{1}1V35[1:1],
{1}5V71[1:1],
{1}1V35V71[2:3],
{1}4V68[32:11],
{1}7-4[2:1]/3-8[2:1],
{1}1v4[2:1]/5v8[2:1],
{1}5^2[2:1]/1^6[2:1],
{1}1pp4[2:1]/5pp8[2:1],
{16}3/5,,,2,1^6[8:1]/3,,4,,5q1[8:1]*qq3[8:1],,,,5,,,,
{16}2/4,,,7,8/6-1[8:1],,5,,4q8[8:1]*pp6[8:1],,,,4,,,,
{16}1/3,,,5,4>1[8:1]/6,,8,,7p3[8:1]*^4[8:1],,,,7,,,,
{16}8/6,,,4,3-7[8:1]/5,,7,,6/3-5[8:1],,5-1[8:1],,3,,7,,
{16}8h[16:3],,,1,1-5[8:1]/8,,7,,6^1[8:1]*q2[8:1],,,,6,,,,
{16}3h[16:3]/4,,,5,5^2[8:1]/3,,1,,8pp2[8:1]*p4[8:1],,,,8,,,,
{16}6h[16:3]/5,,,4,4/6-1[8:1],,2,,3-7[8:1]*-8[8:1],,,,3,,,,
{16}1,8,2,7,3,6,4,5,3>5[4:1]*pp4b[32:5],,,,,,,,
{4}3x-5[32:3],6h[4:1],4x-1[8:1],5h[4:1],
{8}2x-5[8:1],,7h[4:1],,4x-8[8:1],8-3[8:1],7,,
{4}6x-4[32:3],3h[4:1],5x-8[8:1],4h[4:1],
{8}7x-4[8:1],,2h[4:1],,5x-2[8:1],2-6[8:1],3,,
{4}4x-2[32:3],6h[4:1],1x-5[8:1],7h[4:1],
{8}6x-1[8:1],,8h[4:1],,2-6[8:1],6-4[32:3],7,,
{4}8^5[8:1],8p4[8:1]*pp2[8:1],8^5[8:1],8^3[8:1]*q4[8:1],
{16}8^5[8:1],,,,8^3[8:1],,,,5-8[8:1]*-2[8:1],,,,5,,,,
{4}3-8[8:1]/1,8,7-3[8:1],3,
{8}2-5[8:1]/4,,5,,6-1[8:1],4/5,3,,
{4}2v5[8:1]/4,5,6q2[8:1],2,
{8}3v8[8:1]/1,,8,,7^4[8:1],1/8,2,3,
{4}4-2[32:3]/5,2,1-5[8:1]/8,5,
{8}6-1[8:1]/5,,1,,2-4[8:1],4-1[8:1],1-5[8:1],7,
{4}8^3[8:1],8q4[8:1]*qq6[8:1],8^3[8:1],8^5[8:1]*p4[8:1],
{16}8^3[8:1],,,,8^5[8:1],,,,4w8[8:1],,,,4,,,,
{8}1>6[8:3]/5,,6,6^1[4:1],,1^4[4:1],,4^7[4:1],
{8},7^2[4:1],,2^5[4:1],2,,7,,
{8}8<3[8:3]/4x,,3,3^8[4:1],,8^5[4:1],,5^2[4:1],
{8},2^7[4:1],,7^4[4:1],7,,E3,,
{16}2/1-5[8:1],,,4,1,,3,,2^7[8:1],,7,,6,,5,,
{16}4-8[8:1]/8,,,5,,,6,,7xp3[8:1]*q3[8:1]/1x,,,,7^5[32:3],,,,
{16}7/8-4[8:1],,,5x,8,,6,,7^2[8:1],,2,,3,,4,,
{16}5-1[8:1]/1,,,4,,,3,,2x^7[8:1]*^5[8:1],,,,2,,,,
{8}4-1-7[8:3]/8,,7,7-4[4:1],,4-1[4:1],,1-6[4:1],
{8},6-3[4:1],,3-8[4:1],3,,5,,
{8}5-8-2[8:3]/1,,2,2-5[4:1],,5-8[4:1],,8-3[4:1],
{8},3-6[4:1],,6-1[4:1],6,,E4,,
{16}3/4q8[8:1],,,1,4,,2,,3-6[8:1],,6,,7,,8,,
{16}1-5[8:1]/5,,,8,,,7,,6p2[8:1]*qq4[32:5]/4x,,,,6^8[32:3],,,,
{16}6/5q1[8:1],,,8x,5,,7,,6-3[8:1],,3,,2,,1,,
{8}8-4[4:1]/4x,3x,6x,1x,8xw4b[8:1],,{64}8b,E7/B6/Cf/B2/E3,,,,,,,,,,,,,,,
{16}1^4[8:1]/8,,8,7,1^6[8:1],,6-2[8:1],,1,,5,,4,,3/5,,
{16}1^4[8:1],,4qq5[16:3],4,,5,5,,6v1[8:1]*^3[8:1],,,,,,,,
{16}2x-5[8:1]/5x,,3,4,2^7[8:1],,7-3[8:1],,2,,6,,5,,4/2,,
{16}1<5[8:1],,2,2,,3,3,,4pp6[32:5]*qq2[32:5],,,,,,,,
{16}3x/5x,,8,7,1^6[8:1],,2,,3-8[8:1]/1,,4,,5-1[8:1]/3,,6,,
{16}7^2[8:1]/5,,6,6,5x-8[8:1]/7x,,4,,5/3q7[8:1],,2,,1/3,,8,,
{16}1,8,2,7,3,6,4,5,3,4,2,5,1,6,8,7,
{16}1b-5[8:1]/6b,,7,7,,8,8x<8b[4:1]*V64[8:1],,4bxV28[8:1],,,,,,,,
{16}8^5[8:1]/1,,1,2,8^3[8:1],,3-7[8:1],,8,,4,,5,,6/4,,
{16}8^5[8:1],,5pp4[16:3],5,,4,4,,3^8[8:1]*v6[8:1],,,,,,,,
{16}7x-4[8:1]/4x,,6,5,7^2[8:1],,2-6[8:1],,7,,3,,4,,5/7,,
{16}8>4[8:1],,7,7,,6,6,,5w1[8:1],,,,,,,,
{16}6x/4x,,1,2,8^3[8:1],,7,,6-1[8:1]/8,,5,,4-8[8:1]/6,,3,,
{16}2^7[8:1]/4,,3,3,4x-1[8:1]/2x,,5,,4/6p2[8:1],,7,,8/6,,1,,
{16}8,1,7,2,6,3,5,4,6,5,7,4,8,3,1,2,
{16}8b-4[8:1]/3b,,2,2,,1,1xV35V71b[4:1]*>5[8:1],,5bx<1[8:1],,,,,,,,
{24}1,2,3,4,5,6,8,1,2,3,4,5,{32}6xh[16:3],,,,,,E1,B8,B7,,,,E3,B3,B4,,
{24}8,7,6,2,3,4,7,6,5,1,2,3,8,7,6,2,3,4,7,6,5,1,2,3,
{4}8-3[8:1],8-5[8:1]/7,8-4[8:1]/1,8-6[8:1]*-5[8:1]/7,
{4}8-3[8:1]*-2[8:1],8-4b[8:1],8w4[8:1],8x,
{24}8,7,6,5,4,3,1,8,7,6,5,4,{32}3xh[16:3],,,,,,E1,B1,B2,,,,E7,B6,B5,,
{16}2-5[8:1],,5-1[8:1],,1V73[32:7],,,,7,,,,6,,3/5,,
{4}1-6[8:1]/8h[8:1],1-4[8:1]/2h[8:1],1-5[8:1]/8h[8:1],1^6[8:1]/2h[8:1],
{4}1^4[8:1]/8h[8:1],1/2h[8:1],{8}1w5b[8:1],2/8,1,,
{24}3,2,1,8,7,6,3^6[8:1],2,1,8,7,6,3^8[8:1]*p7[8:1],,,,,,3,,,,,,
{24}6,7,8,1,2,3,6q3[8:1],7,8,1,2,3,6qq4[8:1]*^1[8:1],,,,,,6,,,,,,
{24}1,2,3,4,5,6,1v6[8:1],2,3,4,5,6,1V75[8:1]*p5[8:1],,,,,,1,,,,,,
{24}8,7,6,5,4,3,8-3[8:1]*-2[8:1],7,6,5,4,3,8-5[8:1]*-6[8:1],,,,,,8w4b[8:1],,,,,,
{8}8b,,{12}2h[12:1],4h[12:1],6h[12:1],8,,2,2,4,3,
{12}5,4,6,{24}5x,4,3,2,1,8,7x/4x,5,6,7,8,1,5x/2x,4,3,2,1,8,
{16}4bx/7bx,,,2x/5x,,,1x/8x-3[8:1],,3xV15[32:5]/6x,,,,,,4,,
{48}3/7x,,,,,,,,1x/8x,,,,,,,,3x/5x,,,,,,,{4}2bx-6[8:1]/6bx-2[8:1],2x-7V13b[1:6]/6x-3V57b[1:6],
{1}A2/B2/Cf/B6/A6,
E
&inote_6=
