&title=Distorted Fate
&artist=削除
&first=0.05
&lv_5=1
&des_5=
&inote_5=
(200){4},
E
&lv_6=15+
&des_6=冰蓝镜
&inote_6=
(200){4},{24},,,,,,,,,,,,,,,,1,2,
3,4,5,6,7,8,1,2,3,4,5,6,7,8,1,2,3,4,5,6,7,8,{12}1h[12:13],
2,3,4,5,6,7V15[6:5],,,,,,,,,,,,,,,,,,,{1}6h[2:1]/2-6v4[8:3],
5h[2:1]/4p5-8[2:1],
{6}1,2,3,6/4h[3:1],{24},,,,,,,,5bpp8[4:5]/4bqq1[4:5],
6b/3b,7b/2b,8b/1b,{1},{4},,,{16},{48},{1}8q3[4:5]/1p6[4:5],
{6},,,,C,C,
8b/1b,{12}1,8,,1pp1[3:1],{24}7/2,6,5,4,{6}1,6,
7,{12}1,8,,1pp2[4:1],{24}8/7,6,5,4,{6}1,7,
1/8,{12}8,1,,8qq8[3:1],{24}2/7,3,4,5,{6}8,3,
2,{12}8,1,,8qq7[4:1],{24}1/2,3,4,5,{6}8,2,
{2}8b/1b,Cfh[1:3]/B2h[1:3],
B3h[2:5],B4h[1:2],
B5h[2:3],B6h[1:1],
{1}B7h[2:1],
{24}8b/1b,7/2,6/3,5/4,,,8b/1b,7/2,6/3,5/4,,,2b/1b,3/8,4/7,5/6,,,2b/1b,3/8,4/7,5/6,,,7b/8b,
6/1,5/2,4/3,,,7b/8b,6/1,5/2,4/3,,,7b/1b,6/2,5/3,4,,,7b/1b,6/2,5/3,4,,,2b/8b,
3/7,4/6,5,,,2b/8b,7h[48:1]/3h[48:1],4h[48:1]/6h[48:1],5h[48:1],,,5b/1b,6/2,7/3,8/4,,,6b/2b,7/3,8/4,1/5,,,4b/8b,
3/7,2/6,1/5,,,3b/7b,2/6,1/5,8/4,{48},,,,3b,2b,1b,8b,7b,6b,{8}5b,,,{1}5/3,
Cf/8b<4b[2:1]*>4[2:1],
{2}5h[4:1]/3h[8:3],3h[8:3]/4h[4:1],
3h[8:3]/2h[4:1],3h[8:3]/1h[4:1],
3h[8:3]/8h[4:1],7h[4:1]/3h[8:3],
{4}6/4,{8}6/4,4/6,{2}7h[4:1]/2h[4:1],
4h[4:1]/6h[8:3],6h[8:3]/5h[4:1],
6h[8:3]/7h[4:1],6h[8:3]/8h[4:1],
6h[8:3]/1h[4:1],2h[4:1]/6h[8:3],
{4}3/5,{8}3/5,5/3,7,8,1,2,
{6}6/3,{12}6,5,6,5,{6}5,{12}3,4,3,4,
{6}4,{12}6,5,6,5,{6}5,{12}3,4,3,4,
{6}4,{12}6,4,5,4,{6}4,{12}3,5,4,5,
{6}5,{12}6,4,5,4,{6}4,{12}3,5,4,5,
3,3,1,2,1,2,8,8,2,1,2,1,
3,3,8,1,8,1,7,7,1,8,1,8,
2,2,7,8,7,8,6,6,8,7,8,7,
{4}5/4-2[8:1],5,4/5-7[8:1],4,
{12}3/5,3,3,6/4,6,6,3/5,3,3,6/4,6,6,
3/5,3,3,4/5,5,5,4/3,3,3,4/6,6,6,
2/5,2,2,3/7,7,7,6/3,3,3,5/4,5,5,
{4}4/5,7/6,8/1,3/2,
{12}5/4,3,3,{36}3,4,5,{12}6,6,{48}7,6,{24}5,{48}2,3,4,5,,7,6,5,{8}4,8/1,
{24}3,4,2,6,5,7,3,4,2,6,5,7,3,4,1,6,5,8,3,4,1,6,5,8,
3,5,1,6,4,8,3,5,1,6,4,8,3,7,1,6,2,8,3,7,1,6,2,8,
{12}3,5/4,4/3,3/2,2/1,8/1,8/7,7/6,6/5,{48}8/1,7/2,6/3,5/4,,,{8}2/1b,
6,{16}3,4,{8}3,{16}4,5,{8}4,{16}5,6,{8}5,{16}6,7,
{8}6,{16}7,8,{8}7,{16}8,1,{8}8,{16}1,2,{8}1,8/4,
5/3,{16}6,5,{8}6,{16}5,4,{8}5,{16}4,3,{8}4,{16}3,2,
{8}3,{16}2,1,{8}2,{16}1,8,{8}1,{16}8,7,{8}8,6/2,
{16}7V13[4:1],5,7,5,{8}7,4,{4}4-7V51[4:1],{8}4/8,{16}8,7,
{4}6-2[8:1],{8}6/8-6[8:1],1,8-4[8:1],5,8,{16}1,2,
{4}3>8[8:1],7h[2:1],{16},,6,5,{4}4-8[8:1],
Cf/5bv2<8[2:1],{8}4,4,3-7[8:1],3,,,{1}Cf/1s5[4:5],
,Cf/8z4[4:5],
,{24}8/1,
7/2,6/3,4h[8:1]/5h[8:1],,,,6/3,7/2-6[0.45##0.15],8h[8:1]/1h[8:1],,,,7/2,6/3,5/4,,,,,,,,,7/8,
6/1,5/2,3h[8:1]/4h[8:1],,,,5/2,1/6-2[0.45##0.15],7h[8:1]/8h[8:1],,,,6/1,5/2,4/3,,,,,,,,,1/2,
8/3,7/4,5h[8:1]/6h[8:1],,,,7/4,8/3,2h[8:1]/1h[8:3],,,,3,4,5h[8:5],,,,8,7,6h[8:1],,,,7,
8,1h[8:3],,,,4-8[0.45##0.15],3,2h[8:1],,,,3/8,4/7,5/6,,,,,,,,,{6}2/5<8[4:1],
6,4,1,{24}6,5,6,7,{6}6,
7/4>1[4:1],3,5,8,{24}3,4,3,2,{6}3,
2/5<8[4:1],6,4,1,{24}6,5,6,7,{6}6,
7/4,5,3,{24}3,5,4,6,5,7,4,6,3,5,2,4,
{6}1>4[8:1],{12}8,8,{6}7,6<1[8:1],{12}5,5,{6}4,
3<6[8:1],{12}2,2,{6}1,8>3[8:1],{12}7,7,{6}6,
{36}3/5h[6:1],2,1,8,,,8,1,2,3,,,{6}3/5,{36}6/4h[6:1],7,8,1,,,1,8,7,6,,,{6}6/4h[6:1],
{36}2,1,8,7/4,3,2,{12}1/5h[12:1],{36}7,8,1,2/5,6,7,8/4h[12:1],{72},,,,,,,,,,,,,{8}8/1,2/7,6<8[8:1]/3>1[8:1],
{3}5/4,{18},,,,,,1/5,2,3,4,5,6,
7/3,8,1,2,3,4,5/1,6,7,8,1,2,3/7,4,5,6,7,8,
1/5,2,3,4,5,6,7/3,8,1,2,3,4,5/1,6,7,8,1,2,
3/7,4,5,6,7,8,1/5,2,3,4,5,6,7/3,8,1,2,3,4,
5/1,6,7,8,1,7,3,7,3,7,3,8,4,8,4,8,4,1,
5,1,5,1,5,6bh[36:161]/2bh[36:161],{1},,,,{4},,{16},,{64},,{96},{18}6/2,
1/5,4/8,3/7,2/6,1/5,4/8,7,6,5,4,3,{3}6/2bh[3:1],
{24},,,,,,,,1,2,{12}3h[12:11],{24},,,,,,,,,,,,8,
7,{12}6h[12:7],{24},,,,,4,5h[12:11],,,,,,,7,{4}8h[4:5],
{24},,,,,,,,,4,3h[4:5],,,,,,,,,,,,,,,7,
{12}6h[12:11],{24},,,,,,,,,,,,,2,{4}1h[12:7],
{24},5,{12}4h[12:7],{24},,,,,2,3h[4:1],,,,,,,,,,,,,,4/1,
5/2,6/3,7/4,,,,,,,,,,,,,5/8,7/4,6/3,5/2,,,,,,,,,,,,,7b/8bh[4:1],
6,5,4,,,,,2b/1bh[4:1],3,4,5,,,,,8b/4b,
7/3,6/2,5/1,{6}4/8,{24},,,,,,,,3,6,4,5,4,5,4,5,
3,6,3,6,3,6,2,7,2,7,2,7,1,8,1,8,1,8,2,7,3,6,4,5,
4,3,2,1,8,7,6,5,4,3,2,1,8,7,6,5-8[8:3],{12}4-1[3:1],,,4b,
,,,,{3}3/7bh[3:1],{24},,,,,,,,8,
7,{12}6h[12:11],{24},,,,,,,,,,,,1,2,{4}3h[12:7],
{24},5,{12}4h[12:11],{24},,,,,2,1h[4:5],,,,,,,,,,,,,,,5,
{12}6h[4:5],{24},,,,,,,,,,,,,2,{4}3h[12:11],
{24},,,,,,,,,7,8h[12:7],,,,,,,4,{4}5h[3:1],
{24},7,{12}6,{36},,{9}8/2,,E6/B5/B4/E4,,{3}7V52[0.2667##0.1333]/8V61[0.2667##0.1333],
{9},3/8,4/7,{3}5-3[0.2667##0.1333]/6-2-7[0.2667##0.2667],{9},E6/B5/B4/E4,,2V47[0.2667##0.1333]/1V38[0.2667##0.1333],
,,,6/1,5/2,{3}4-6[0.2667##0.1333]/3-7-2[0.2667##0.2667],
,2h[3:2],{24},,,,,,,,,3/1,
8/4,7/5,{6}6h[6:7],,,,,,,,,,,{3}2b/7bV51[3:1],
{6}1V73[3:1],2,3V15[3:1],4,
5V73[3:1],4,3<8[4:1],2,2,3,
{3}7/2V48[3:1],{6}8V26[3:1],7,6V84[3:1],5,
4V26[3:1],5,6>1[4:1],7,7,6,
{24}3b/7h[3:1],4,5,6,,8,1,2,3h[3:1],6,5,4,,2,1,8,7h[3:1],4,5,6,,8,1,2,
3h[3:1],6,5,4,,2,1,8,7,4,5,6,,8,1,2,3/6,5,4,3,2,1,8,7,
6/2h[3:1],5,4,3,,1,8,7,6h[3:1],3,4,5,,7,8,1,2h[3:1],5,4,3,,1,8,7,
6h[3:1],3,4,5,,7,8,1,2,5,4,3,2b,1,8,7,2b/6b,5/1,{4}4/8,
{24}1/5,2,3,4,1,2,3,4,{6}5/1,{24}8/4,7,6,5,8,7,6,5,{6}4/8,
5/1b<6[0.2##0.15],{24}5,4,3,2,5,4,3,2,{6}1/5b<8[0.2##0.15],{24}1,2,3,4,1,2,3,4,
{48}1/5h[48:1],2,3,4,5,6,7,8,1/5h[48:1],2,3,4,5,6,7,8,{6}1/5h[48:1],{48}8/4h[48:1],7,6,5,4,3,2,1,8/4h[48:1],7,6,5,4,3,2,1,{6}8/4h[48:1],
{48}2/6h[48:1],3,4,5,6,7,8,1,2/6h[48:1],3,4,5,6,7,8,1,{6}2/6h[48:1],{48}7/3h[48:1],6,5,4,3,2,1,8,7/3h[48:1],6,5,4,3,2,1,8,{6}7/3h[48:1],
{18}2/6,3,8/4,1,6/2,7,4/8,5,6/2,3,8/4,1,6/2h[6:1],5,4,3,,,7/3,
6,1/5,8,3/7,2,5/1,4,3/7,6,1/5,8,3/7h[6:1],4,5,6,,,3/7,
2,5/1,4,7/3,6,1/5,8,7/3,2,5/1,4,7/3h[6:1],8,1,2,,,6/2,
7,4/8,5,2/6,3,8/4,1,2/6,7,4/8,5,2/6h[6:1],1,8,7,{72},,,,,,,,{24}1,
2,3,4,5,6,7,8,1,2,3,4,1,2,3,4,8,7,6,5,4,3,2,1,
8,7,6,5,8,7,6,5,2,3,4,5,2,3,4,5,6,7,8,1,2,3,4,5,
{32}6/7h[32:1],8,1,2,3,4,5/7h[32:1],8,1,2,3,4,5/1h[32:1],2,3,4,5,6,7/1h[32:1],2,3,4,5,6,2h[48:1],3/8,4/7,5,6,7,8,1/6,
2/5,3,4,5,6,7/4,8/3,1,2,3,4,5/2,6/1,7,8,1,2,3,2,3,2,3,2,3,4/2,3/5,4/6,5/7,6,7/5,6/8,7/1,
{1}2bh[2:3]/8bh[2:3],
{3},,,Cfh[1:4],
{6}B1,B2,,B3,
B4,B5,B6,B7,{3}B8,
{6}D1,A1,A2,D3,A3,A4,
D5,A5,A6,D7,A7,A8,
{1}D1,
E
&lv_7=1
&des_7=
&inote_7=
(200){4},
E
